<?xml version="1.0" standalone="no"?>
<!DOCTYPE svg PUBLIC "-//W3C//DTD SVG 1.1//EN" "http://www.w3.org/Graphics/SVG/1.1/DTD/svg11.dtd" >
<svg xmlns="http://www.w3.org/2000/svg">
<metadata>Generated by IcoMoon</metadata>
<defs>
<font id="icomoon" horiz-adv-x="1024">
<font-face units-per-em="1024" ascent="960" descent="-64" />
<missing-glyph horiz-adv-x="1024" />
<glyph unicode="&#x20;" horiz-adv-x="512" d="" />
<glyph unicode="&#xe900;" glyph-name="fa-fa-box" d="M944.558-63.283c-287.355 0-574.71 0-862.085 0-24.187 6.39-45.548 17.224-61.235 37.622-12.206 15.872-17.654 34.14-20.541 53.494 0 161.198 0 322.396 0 483.594 1.147-0.102 2.314-0.287 3.461-0.287 334.5 0 669 0.020 1003.5 0.061 5.427 0 10.875 0.164 16.302 0.246 0-161.976 0-323.953 0-485.949-0.635-2.171-1.556-4.301-1.884-6.533-5.1-34.509-24.453-58.491-55.071-73.81-7.086-3.564-14.93-5.652-22.446-8.438zM1020.826 576.532c-159.15 0-316.641 0-475.054 0 0 126.607 0 253.194 0 381.256 4.403 0 8.54 0 12.677 0 87.962 0 175.923-0.942 263.844 0.389 44.933 0.676 83.456-28.631 96.993-70.513 31.334-97.075 64.451-193.556 96.707-290.324 2.13-6.41 3.113-13.23 4.833-20.808zM478.904 576.553c-157.757 0-315.228 0-474.644 0 1.536 7.086 2.294 13.517 4.301 19.538 32.256 97.075 65.085 193.966 96.829 291.205 13.967 42.721 50.954 71.598 98.161 70.861 87.572-1.352 175.206-0.389 262.799-0.389 3.85 0 7.7 0 12.554 0 0-127.345 0-253.952 0-381.215z" />
<glyph unicode="&#xe901;" glyph-name="fa-fa-bullhorn" d="M889.487 886.374c45.158-15.073 59.781-43.684 59.781-93.573 0-57.201 0-118.067 0-177.091 0-6.636 0-13.271 0-19.517 50.749-13.783 72.765-36.536 72.991-74.383 0.225-38.318-22.487-62.341-73.011-76.124 0-70.164-0.266-140.698 0.143-211.231 0.143-25.477-7.946-47.063-28.611-61.952-10.035-7.229-22.282-12.37-34.304-15.462-5.325-1.372-13.619 3.338-18.78 7.496-77.824 62.894-160.44 117.903-252.928 157.307-57.487 24.494-117.207 40.591-178.831 49.766-33.403 4.977-57.59-11.162-75.448-37.315-19.579-28.652-24.166-59.945-7.168-91.279 7.004-12.902 10.527-22.569 4.28-37.806-11.837-28.856-3.584-55.992 15.933-79.852 18.145-22.139 36.147-44.401 54.231-66.621l2.908-3.092c-8.131-11.469-11.53-15.647-23.921-22.159-62.013-32.522-125.112-32.42-187.556-0.655-6.943 3.523-14.459 10.772-16.753 17.9-17.306 53.78-35.369 107.438-49.193 162.161-11.756 46.572-7.393 94.249 2.765 141.128 1.393 6.431 2.703 12.861 4.465 21.197-23.020 0-44.237-0.041-65.454 0-53.699 0.102-93.225 38.912-93.778 92.57-0.369 35.287-0.287 70.595-0.020 105.882 0.41 54.415 38.973 92.815 93.348 92.918 79.114 0.143 158.29 2.232 237.322-0.43 149.443-5.059 283.361 41.001 407.45 119.726 44.032 27.935 85.074 60.6 127.345 91.259 3.236 2.355 10.486 7.209 13.046 9.216 4.628 2.335 4.69 1.495 9.748 0.020zM877.117 791.388c-3.871-1.044-5.714-1.188-7.168-2.028-3.154-1.802-6.226-3.809-9.155-5.96-123.064-90.911-254.894-162.161-409.498-182.129-10.568-1.372-13.926-6.124-13.783-16.732 0.553-40.776 1.065-81.572 0.266-122.327-0.266-13.763-0.266-19.026 12.288-20.255 165.335-20.193 294.42-94.167 427.028-193.126 0.020 183.255 0.020 361.943 0.020 542.556z" />
<glyph unicode="&#xe902;" d="M768.614 42.086c-11.059 2.458-22.323 4.301-33.178 7.373-89.293 24.986-147.251 82.739-166.502 173.056-19.866 93.594 10.035 173.056 86.835 231.424 77.414 58.778 180.838 61.44 261.734 7.782 56.525-37.478 90.522-90.522 100.352-157.901 17.818-123.29-63.283-232.243-179.2-257.024-7.782-1.638-15.565-3.072-23.552-4.71-15.974-2.867-29.696-2.662-46.49 0zM817.357 296.653c0 24.371 0 47.104 0 70.042 0 30.515-1.638 31.949-31.949 31.334-13.107-0.205-18.842-5.53-18.842-18.637-0.205-38.093-0.205-76.186 0-114.278 0-14.746 5.53-19.866 20.48-20.070 26.010 0 52.019 0 78.029 0 26.624 0 29.082 2.458 28.877 29.286-0.205 17.203-5.12 22.118-22.118 22.118-17.818 0.205-35.43 0.205-54.477 0.205z" />
<glyph unicode="&#xe903;" d="M3.686 500.019c0 27.034 0 52.634 0 78.438 0 17.408-0.205 34.816 0 52.019 0.819 36.659 33.587 71.066 70.656 72.090 39.936 1.024 80.077 0.41 120.013 0.41 3.686 0 7.373 0 11.878 0 0.205 3.891 0.41 7.168 0.41 10.445 0 21.299 0.205 42.803-0.205 64.102-0.819 43.827 39.731 78.643 78.029 78.029 83.354-1.229 166.912-1.434 250.266 0 39.526 0.614 79.462-34.816 78.848-78.234-0.205-21.094 0-42.189 0-63.283 0-3.277 0-6.758 0-11.264 4.301 0 7.578 0 10.854 0 36.864 0 73.933-1.229 110.592 0.41 44.442 1.843 84.378-36.454 82.125-82.739-1.229-23.142-0.205-46.285-0.205-70.246-12.698 0-24.371 0.205-36.045 0-49.357-1.434-95.027-15.77-136.602-42.189-9.421-5.939-18.432-8.397-29.286-8.397-199.68 0.205-399.36 0.205-599.040 0.205-3.686 0.205-7.373 0.205-12.288 0.205zM309.248 704.614c67.994 0 134.963 0 202.138 0 0 16.998 0 33.178 0 49.357-67.584 0-134.758 0-202.138 0 0-16.589 0-32.563 0-49.357z" />
<glyph unicode="&#xe904;" d="M307.814 448c0-16.589 0-32.563 0-48.538 0-8.602-0.41-17.408 0.205-26.010 1.024-17.408 10.65-26.214 28.262-26.214 58.368 0 116.531 0 174.899 0 3.277 0 6.758 0 11.264 0-19.251-70.246-12.288-137.421 19.456-203.162-4.301 0-7.373 0-10.445 0-149.709 0-299.418 0-449.126 0-37.274 0-67.789 23.552-77.005 58.982-1.229 4.915-1.638 10.445-1.638 15.565-0.205 74.342 0 148.89 0 223.232 0 1.843 0.205 3.686 0.41 6.144 100.762 0 201.523 0 303.718 0z" />
<glyph unicode="&#xe905;" d="M817.357 296.653c19.046 0 36.659 0 54.272 0 16.998 0 22.118-5.12 22.118-22.118 0.205-26.829-2.253-29.286-28.877-29.286-26.010 0-52.019 0-78.029 0-14.95 0-20.275 5.325-20.48 20.070-0.205 38.093-0.205 76.186 0 114.278 0 12.902 5.734 18.432 18.842 18.637 30.515 0.614 31.949-1.024 31.949-31.334 0.205-23.142 0.205-46.080 0.205-70.246z" />
<glyph unicode="&#xe906;" d="M309.248 704.614c0 16.794 0 32.768 0 49.357 67.379 0 134.349 0 202.138 0 0-16.179 0-32.563 0-49.357-67.174 0-134.144 0-202.138 0z" />
<glyph unicode="&#xe907;" glyph-name="fa-fa-clock-o" d="M514.867 947.098c-277.299 0-501.965-224.666-501.965-501.965s224.666-501.965 501.965-501.965 501.965 224.666 501.965 501.965-224.666 501.965-501.965 501.965zM514.867 85.299c-198.656 0-359.834 160.973-359.834 359.834 0 198.656 160.973 359.834 359.834 359.834s359.834-160.973 359.834-359.834c0-198.656-161.178-359.834-359.834-359.834zM574.054 361.779h-30.31c-14.131 0-25.6 11.469-25.6 25.6v286.515c0 14.131 11.469 25.6 25.6 25.6h30.31c14.131 0 25.6-11.469 25.6-25.6v-286.515c0.205-14.131-11.469-25.6-25.6-25.6zM599.859 418.304v-37.683c0-12.083-9.83-21.914-21.914-21.914h-203.162c-12.083 0-21.914 9.83-21.914 21.914v37.683c0 12.083 9.83 21.914 21.914 21.914h202.957c12.288 0 22.118-9.83 22.118-21.914z" />
<glyph unicode="&#xe908;" glyph-name="fa-fa-envelope" d="M735.232 243.405h-466.33c-29.491 0-53.453 23.962-53.453 53.453v249.856l220.979-158.106c0 0 29.286-22.528 65.741-22.528 38.502 0.205 65.741 22.528 65.741 22.528l220.979 158.106v-250.061c-0.205-29.491-23.962-53.248-53.658-53.248zM767.181 576.819l-222.822-152.781c0 0-26.829-16.589-42.189-15.974-16.794 0.41-42.598 16.384-42.598 16.384l-222.413 152.576c-13.517 9.216-21.709 24.781-21.709 41.165v24.371c0 28.672 23.142 51.814 51.814 51.814h469.606c28.672 0 51.814-23.142 51.814-51.814v-24.576c0-16.384-7.987-31.744-21.504-41.165z" />
<glyph unicode="&#xe909;" glyph-name="fa-fa-facebook" d="M813.261 960h-602.522c-116.326 0-210.739-94.413-210.739-210.739v-602.522c0-116.326 94.413-210.739 210.739-210.739h602.522c116.326 0 210.739 94.413 210.739 210.739v602.522c0 116.326-94.413 210.739-210.739 210.739zM865.69 661.402l-34.406-0.205c0 0-28.877-0.205-38.093-0.205-46.49 0-81.92-6.554-82.125-58.573-0.205-20.89 0.614-112.64 0.614-112.64h149.299l-20.070-154.829h-130.867v-394.035h-163.43v392.602h-130.048v154.624h129.843l0.205 125.133c1.024 38.707 13.312 190.669 183.091 190.669 3.891 0 135.987 0 135.987 0v-142.541z" />
<glyph unicode="&#xe90a;" d="M1017.651 448c0-279.263-226.388-505.651-505.651-505.651s-505.651 226.388-505.651 505.651c0 279.263 226.388 505.651 505.651 505.651s505.651-226.388 505.651-505.651z" />
<glyph unicode="&#xe90b;" d="M353.075 834.253c19.866 19.046 27.648 17.203 35.84-6.963 1.638-4.915 10.854-9.216 17.203-10.24 7.987-1.229 16.589 2.253 24.781 1.434 7.987-1.024 15.77-4.915 23.552-7.578 3.277 3.686 9.421 10.445 17.613 19.661-5.325 2.867-12.288 5.939-18.227 10.445-3.277 2.458-5.734 7.168-6.144 11.059-0.205 1.843 5.939 5.734 9.216 5.734 12.083 0 23.347 1.024 27.443-16.794 1.638-6.758 18.432-10.035 29.491-12.902 15.77-22.528 17.613-22.118 35.021 2.048 3.277 4.506 12.083 4.915 18.432 7.373 2.458-9.421 5.53-18.842 6.554-28.467 0.205-1.434-11.059-7.168-14.131-5.53-16.384 8.397-23.552 0.205-31.539-12.698-4.301-6.963-13.312-14.541-20.89-15.36-24.781-2.458-31.334-19.866-36.045-39.117-3.891-15.565 8.602-28.467 24.781-32.154 22.528-5.12 45.261-11.674 66.56-20.89 6.963-3.072 10.445-15.565 14.131-24.166 6.758-15.565 15.36-21.299 30.925-7.578-9.626 15.77-7.782 27.443 9.421 39.117 16.998 11.674-3.277 18.842-6.963 26.010 1.024 14.746 2.048 27.853 3.072 41.574 28.877 9.011 59.187-4.096 71.68-30.31 2.458-5.12 13.517-9.421 19.866-8.602 8.192 1.024 15.565 7.782 24.986 12.698 5.325-6.554 13.312-12.902 16.998-21.299 7.578-16.998 14.131-31.949 37.683-31.539 6.349 0.205 12.902-13.722 19.251-21.094-6.349-5.12-12.493-10.445-18.842-15.565-5.939-4.915-11.878-9.83-17.613-14.541-30.106 11.264-69.427 2.253-82.125-16.998 12.288 3.277 26.214 7.168 40.346 11.059 0.819-2.048 1.843-4.301 2.662-6.349-3.072-2.867-5.939-5.53-9.216-8.602 2.867-4.71 6.349-10.445 10.24-16.998-3.686-3.277-6.349-6.349-9.83-8.397-17.203-10.65-38.707-12.902-48.742-37.069-5.12-12.493-27.443-17.408-40.55-27.443-5.325-4.096-11.469-15.155-9.421-19.456 10.445-23.142-4.301-33.792-20.070-42.803-25.6-14.541-23.962-12.902-12.493-40.141 5.12-12.083 0.819-28.262-3.277-44.442-3.891 5.53-9.011 10.65-11.469 16.794-13.107 32.768-38.707 42.803-70.656 27.648-3.277-1.434-7.987-1.024-11.878-0.205-30.72 6.144-51.2-10.445-51.61-42.189-0.205-13.926-2.048-28.058-0.205-41.574 3.072-22.528 18.227-36.864 36.864-34.611 7.782 0.819 15.155 8.602 21.709 14.131 3.891 3.482 4.915 11.264 9.216 13.312 6.144 2.867 13.926 2.253 20.89 3.277-0.205-5.734 0.614-11.674-0.819-16.998-3.277-12.493-7.373-24.576-11.674-37.683 15.155-0.614 27.853 1.638 37.478-2.662 6.349-2.662 8.806-14.746 12.698-22.938 1.229-2.867 2.253-6.963 1.229-9.626-9.626-25.805-1.843-37.069 30.31-39.731-3.277-6.554-6.144-11.878-9.011-17.408-4.506 2.458-10.035 4.096-13.517 7.578-15.77 15.974-30.925 32.563-46.694 48.742-2.048 2.253-5.53 3.482-8.397 4.506-2.662 0.819-6.349-0.205-8.192 1.434-35.84 32.358-91.136 24.986-127.795 54.067-2.867 2.253-8.806 7.987-10.854 11.059-3.277 4.915 0.41 7.578-2.458 12.902-0.819 1.638-1.638 3.072-2.458 4.506-6.144 10.65-10.65 22.118-17.408 32.154-16.179 24.166-33.382 47.923-50.381 71.68-2.458 3.482-6.758 5.734-14.336 5.939 9.626-17.613 17.203-28.672 34.202-72.090-2.253-1.024-2.048-2.048-4.096-3.072-4.915 9.216-15.155 18.842-20.48 28.058-1.229 2.048 0.819 3.277-0.205 5.325-9.83 18.432-20.070 37.683-30.31 56.32-2.662 4.71-6.963 8.806-11.469 11.878-38.912 27.238-55.091 64.307-49.562 111.411 1.229 11.264 0.205 22.733 0.205 33.997 5.734 0 10.854 0 16.179 0-2.662 5.12-4.096 11.469-8.192 15.155-18.022 16.794-36.659 32.768-55.706 49.562 44.237 67.379 97.485 119.808 168.755 152.576 7.782-5.939 15.77-11.674 18.842-14.131 13.722 6.963 23.552 12.083 33.587 17.203 0.41 1.434 1.024 2.867 1.434 4.506-8.397 1.434-16.998 2.253-25.395 3.072z" />
<glyph unicode="&#xe90c;" d="M583.475 37.99c1.024 9.216 2.048 14.541 2.253 19.866 0.41 8.602-0.614 17.203 0.614 25.805 1.024 7.987 1.638 18.842 6.758 22.733 23.962 18.227 20.275 41.984 16.794 66.355-1.024 6.758-2.048 13.722-2.662 17.613 7.168 4.915 13.926 7.578 17.818 12.288 19.251 23.347 40.96 27.443 68.608 14.336 13.312-6.349 24.986-15.565 44.032-11.264 11.264 2.458 27.238-12.902 40.346-21.504 10.65-6.963 20.070-15.974 32.768-26.010-59.802-63.078-134.758-103.424-227.328-120.218z" />
<glyph unicode="&#xe90d;" glyph-name="fa-fa-map-marker" d="M512 956.109c-186.982 0-338.534-151.552-338.534-338.534s151.552-338.534 338.534-338.534 338.534 151.552 338.534 338.534-151.552 338.534-338.534 338.534zM512 446.976c-94.208 0-170.598 76.39-170.598 170.598s76.39 170.803 170.598 170.803c94.208 0 170.598-76.39 170.598-170.598s-76.39-170.803-170.598-170.803zM597.197 7.27c-30.515-90.112-137.83-90.112-170.189 0l-208.896 442.368 293.888-34.202 293.888 34.406-208.691-442.573z" />
<glyph unicode="&#xe90e;" glyph-name="fa-fa-phone" d="M235.725 946.278c7.578-7.168 19.251-23.347 28.877-39.322 32.563-54.067 63.283-109.363 95.232-163.84 18.227-31.13 17.818-45.261-9.011-70.246-27.648-26.010-57.549-49.766-85.402-75.776-25.805-23.962-27.238-35.43-11.469-66.355 77.414-150.323 191.488-264.192 342.221-341.197 26.829-13.722 40.55-12.083 61.235 9.83 26.624 28.262 50.79 58.778 77.619 87.040 27.648 29.286 39.936 29.082 73.523 9.011 56.115-33.587 112.435-66.97 169.984-98.304 33.792-18.227 43.213-43.008 32.563-84.582-26.829-105.882-108.134-139.469-199.68-162.611-50.176-12.698-97.69 1.843-145.613 15.565-189.44 54.272-335.053 171.418-462.438 316.621-97.485 111.206-155.648 240.435-190.464 382.157-0.41 1.229-4.506 21.914-4.506 45.056 0 18.432 0 26.419 1.638 36.045 15.36 48.538 31.13 81.715 50.79 120.627 21.709 42.803 58.573 64.922 106.496 76.8 14.131 3.482 26.624 5.53 39.731 8.397 8.806 1.229 21.094 2.253 28.672-4.915z" />
<glyph unicode="&#xe90f;" glyph-name="fa-fa-search" d="M1009.254 49.254c7.578-10.24 9.83-22.733 2.458-37.274-12.902-26.829-35.84-47.514-64.307-63.078-8.806-4.301-16.384-4.506-27.034 0-18.227 11.878-41.574 28.262-59.392 44.442-60.621 54.886-116.531 114.688-174.080 172.851-10.445 10.65-17.613 11.878-30.515 3.686-108.339-68.198-224.666-83.558-346.931-46.285-204.8 62.464-325.222 261.325-295.936 472.064 24.166 173.056 152.781 308.019 320.102 346.931 26.214 6.144 55.091 10.445 83.763 11.059 9.011 0.41 19.046 0.205 27.853 0 10.854 0.205 42.803-3.277 47.104-4.096 41.779-7.373 56.934-10.445 97.69-26.419 192.717-75.776 303.104-292.045 253.747-493.158-12.698-50.995-33.997-97.69-62.259-139.878 76.595-81.101 152.166-160.973 227.738-240.845zM431.514 256.922c150.118-0.614 271.36 119.194 272.384 269.312 1.024 146.227-119.398 268.902-260.506 274.022-151.962 5.939-283.648-116.941-284.058-269.722-0.41-151.962 119.398-272.794 272.179-273.613zM879.411-39.014l-217.088 217.088 117.965 117.965 217.088-217.088c24.986-24.986 24.986-65.741 0-90.726l-27.238-27.238c-24.986-25.19-65.741-25.19-90.726 0z" />
<glyph unicode="&#xe910;" glyph-name="fa-fa-suitcase" d="M335.258 887.767c117.821 0 235.663 0 353.485 0 33.464-14.643 44.646-40.673 41.513-76.022-2.007-22.733-0.369-45.814-0.369-71.291 25.313 0 48.497 0 71.352 0 0-243.794 0-484.946 0-726.098-193.679 0-385.823 0-578.478 0 0 242.299 0 483.512 0 726.651 23.9 0 46.694 0 71.741 0 0 24.76 1.72 47.821-0.389 70.513-3.318 35.369 7.782 61.42 41.144 76.247zM366.838 742.748c97.833 0 193.925 0 290.468 0 0 24.535 0 47.821 0 71.107-97.403 0-193.516 0-290.468 0 0-23.941 0-46.776 0-71.107zM860.672 738.939c98.55 17.388 163.246-56.934 161.649-133.98 0.328-122.655 0.328-347.3 0.266-447.693 2.355-84.46-62.444-157.286-161.894-142.582-0.020 240.927-0.020 482.038-0.020 724.255zM164.004 740.925c0-242.954 0-483.881 0.020-724.808-83.19-18.719-160.522 42.721-160.502 117.187 0.020 46.879-0.492 366.264-0.143 488.284 0.184 62.075 55.644 116.244 118.19 119.214 13.783 0.676 27.628 0.123 42.435 0.123z" />
<glyph unicode="&#xe911;" glyph-name="fa-fa-ticket-alt" d="M1017.856 712.602c0-60.006 0-120.218 0-180.224-3.686-0.41-7.578-0.819-11.264-1.229-32.973-5.12-55.91-23.552-67.584-54.067-11.264-29.491-6.349-57.549 13.722-82.33 16.589-20.685 39.117-29.901 64.922-32.154 0-60.006 0-120.218 0-180.224-0.41-0.614-1.024-1.024-1.229-1.638-8.192-40.755-45.466-69.222-92.57-69.018-188.006 1.229-376.218 0.614-564.224 0.614-89.088 0-178.176 0-267.264 0-29.491 0-53.453 11.264-70.246 35.43-7.168 10.24-10.854 23.142-16.179 34.816 0 60.006 0 120.218 0 180.224 3.686 0.614 7.373 1.229 11.059 1.638 33.792 3.891 64.717 32.768 71.475 65.946 10.854 53.248-29.491 101.581-82.534 102.4 0 59.392 0 118.784 0 178.176 5.12 22.323 15.155 41.779 34.202 55.91 13.722 10.24 29.491 14.746 46.080 17.818 283.034 0 566.067 0 849.306 0 2.253-0.614 4.506-1.229 6.963-1.638 24.781-2.662 45.056-14.131 58.982-34.406 7.168-11.059 11.059-23.962 16.384-36.045zM512.205 672.051c-97.28 0-194.56 0-292.045 0-28.467 0-45.67-16.794-45.67-45.056-0.205-119.398-0.205-238.797 0-358.4 0-28.262 17.408-45.261 45.466-45.261 194.355 0 388.506 0 582.861 0 29.696 0 46.694 16.794 46.694 46.285 0 118.784 0 237.568 0 356.352 0 29.491-16.998 46.080-46.49 46.080-96.87 0-193.946-0.205-290.816 0zM792.781 614.707c0-111.411 0-222.208 0-333.824-186.982 0-373.555 0-560.947 0 0 111.002 0 222.003 0 333.824 186.573 0 373.146 0 560.947 0z" />
<glyph unicode="&#xe912;" glyph-name="fa-fa-twitter" d="M6.554 127.488c111.821-9.216 212.582 17.613 304.333 87.040-95.437 8.397-159.13 55.091-194.765 144.384 31.334-3.482 60.416-4.915 92.16 5.12-50.176 12.493-89.498 36.659-119.603 74.752-29.901 37.888-44.851 81.306-45.056 130.253 15.155-5.939 29.286-12.493 43.827-16.589 14.746-4.096 30.106-5.939 46.285-7.168-41.779 33.178-71.475 73.933-83.149 126.157-11.674 52.429-4.915 102.195 22.528 150.733 112.64-132.506 255.181-204.8 428.237-217.293-0.819 20.89-2.867 40.755-2.253 60.416 3.072 95.232 80.486 180.019 174.899 193.126 69.018 9.421 128.41-9.421 178.995-57.139 3.072-2.867 9.626-4.301 13.926-3.482 39.731 7.578 77.21 22.118 112.64 41.779 2.662 1.434 5.53 2.867 10.445 5.325-16.384-48.128-45.261-83.763-85.811-110.387 0.205-1.024 0.614-2.253 0.819-3.277 18.432 3.686 37.069 6.554 55.091 11.469 18.227 4.915 35.84 11.674 57.344 18.637-8.397-11.059-13.926-20.685-21.299-28.058-23.757-23.757-48.128-47.104-72.499-70.042-5.325-5.12-8.602-9.216-8.602-17.408-0.819-211.763-83.354-382.976-255.181-508.109-84.582-61.645-181.453-91.75-285.491-99.942-73.318-5.734-145.203 0.819-216.064 20.89-53.043 14.541-102.4 37.069-149.094 65.741-0.819 0.614-1.434 1.638-2.662 3.072z" />
<glyph unicode="&#xe913;" glyph-name="fa-fa-users" d="M512.307-25.805c-77.619 0-155.238-0.369-232.858 0.307-16.138 0.143-32.788 2.314-48.271 6.799-52.511 15.196-85.279 50.872-90.501 104.878-7.311 75.756 1.393 150.651 30.945 221.614 20.869 50.094 53.432 88.945 109.117 103.178 25.846 6.595 48.845 6.185 71.721-11.428 45.773-35.205 97.567-57.221 156.221-57.815 49.152-0.512 94.781 13.148 136.233 39.936 5.222 3.379 10.301 7.025 15.708 10.097 17.777 10.117 32.379 27.136 56.136 23.921 33.178-4.485 63.98-14.254 88.801-37.888 36.721-34.959 54.477-79.811 65.864-127.877 12.349-52.163 17.101-105.062 13.128-158.474-4.465-60.211-49.234-108.36-109.24-113.377-49.459-4.137-99.389-3.113-149.094-3.768-37.99-0.512-75.96-0.102-113.91-0.102zM715.796 586.711c0.082-112.947-90.993-204.268-203.715-204.268-112.763 0-203.448 91.136-203.387 204.411 0.061 112.701 90.255 203.121 202.691 203.244 113.684 0.123 204.329-90.092 204.411-203.387zM272.138 618.066c2.56-28.508 2.109-58.327 8.643-86.508 6.39-27.566 19.907-53.494 30.351-80.241-50.381-3.83-95.109-23.491-130.642-62.71-2.97-3.277-8.622-5.939-12.984-5.857-30.474 0.553-61.133-0.020-91.32 3.482-46.387 5.366-75.244 37.683-73.073 83.927 2.048 43.848 8.151 87.572 14.172 131.113 1.556 11.182 8.212 22.344 14.746 32.051 14.602 21.688 30.72 24.842 53.514 12.349 43.233-23.695 88.228-41.062 138.793-35.717 16.691 1.741 33.178 5.571 47.8 8.11zM709.161 451.707c33.546 51.466 46.858 106.414 39.322 167.014 17.388-3.113 33.546-6.963 49.91-8.745 49.91-5.468 94.679 10.916 137.564 34.14 27.361 14.807 48.865 10.977 60.314-18.248 11.776-30.065 17.572-62.792 23.122-94.843 3.543-20.439 2.642-41.779 2.396-62.71-0.512-44.36-27.935-76.8-72.253-81.981-30.74-3.604-61.993-2.97-93.020-3.564-4.321-0.082-9.933 2.683-12.902 5.96-35.43 39.281-80.302 58.675-134.451 62.976zM341.975 791.040c0-74.9-60.718-135.619-135.619-135.619s-135.619 60.718-135.619 135.619c0 74.9 60.718 135.619 135.619 135.619s135.619-60.718 135.619-135.619zM954.286 790.098c0-74.9-60.718-135.619-135.619-135.619s-135.619 60.718-135.619 135.619c0 74.9 60.718 135.619 135.619 135.619s135.619-60.718 135.619-135.619z" />
<glyph unicode="&#xe914;" glyph-name="fa-fa-wifi" d="M1024.205 570.47c-23.757-24.781-47.309-49.766-71.066-74.547-11.674-12.083-22.733-11.674-35.84-0.205-57.549 50.381-120.832 92.979-192.922 119.194-193.126 70.246-376.218 49.152-547.43-65.536-24.371-16.384-47.514-34.611-70.042-53.658-13.312-11.264-24.371-11.878-36.045 0.205-23.757 24.576-47.309 49.766-71.066 74.547 0 2.253 0 4.506 0 6.758 4.301 4.301 8.397 8.602 12.698 12.698 102.81 98.099 223.437 159.13 362.086 185.754 31.949 6.144 64.922 10.854 98.918 11.878 9.83 0.614 25.6 1.434 38.298 1.434s29.286-0.819 38.298-1.434c14.336-0.41 31.949-1.434 49.357-3.891 162.406-22.323 307.61-89.498 424.346-206.234 0.41-2.458 0.41-4.71 0.41-6.963zM515.277 587.059c140.698-4.915 253.133-46.49 354.099-139.059 14.336-13.107 15.77-18.637 2.458-33.178-19.456-21.299-40.55-41.165-61.030-61.44-10.854-10.854-20.89-11.059-33.587-1.229-45.261 35.226-92.774 66.97-148.070 84.378-101.99 32.154-200.909 20.89-295.322-27.443-32.973-16.794-63.693-38.093-94.822-58.368-7.987-5.12-14.131-8.192-21.709-0.614-22.733 22.733-45.466 45.466-67.994 68.403-9.626 9.83-6.554 18.637 2.662 27.238 79.462 74.752 180.224 119.398 287.13 136.397 22.118 3.482 52.224 4.915 76.186 4.915zM512.205 386.56c80.691-3.686 152.781-26.419 214.221-78.643 16.794-14.336 18.227-19.251 3.482-35.226-19.046-20.89-39.936-40.141-59.802-60.006-10.035-10.035-19.251-10.445-31.949-2.048-38.912 25.395-80.896 44.032-128.819 43.418-45.466-0.819-85.402-18.022-122.266-42.598-13.926-9.421-23.757-8.602-34.816 2.458-20.275 20.48-40.755 40.755-60.826 61.44-10.854 11.264-8.397 20.89 3.072 30.72 63.283 53.862 137.421 77.619 217.702 80.486zM596.378 154.112c2.048-2.662 1.843-8.192 0.41-11.264-2.253-5.325-4.301-7.782-7.578-10.854-20.275-21.094-41.165-41.779-62.054-62.259-9.83-9.626-20.48-10.035-30.515-0.205-21.299 21.094-42.803 41.574-62.874 63.693-12.083 13.312-9.421 22.118 5.939 32.563 37.478 25.6 106.291 25.805 143.974 0 4.915-3.482 8.397-6.349 12.698-11.674z" />
<glyph unicode="&#xe915;" glyph-name="fa-fa-youtube-play" d="M1011.302 661.402c-7.987 74.138-60.826 126.976-134.963 134.963-94.208 10.24-274.637 11.059-366.387 11.059-90.112 0-272.179-0.614-360.243-11.059-74.138-8.602-122.88-61.44-134.963-134.963-8.192-49.766-14.541-151.142-14.746-201.523-0.205-56.525 6.554-169.37 14.746-224.256 11.059-73.728 60.621-129.638 134.963-134.963 98.304-7.168 295.936-12.083 394.65-11.674 82.944 0.205 248.422 4.915 331.776 11.674 74.342 5.939 127.795 60.826 134.963 134.963 5.53 56.115 12.902 168.55 12.698 224.87 0 50.176-6.963 150.323-12.493 200.909zM405.094 315.29v289.997l279.142-145.818-279.142-144.179z" />
<glyph unicode="&#xe916;" glyph-name="fab-fa-buffer" d="M509.338 526.643l-465.92 215.45 466.125 213.402 465.92-213.402zM975.462 467.456c0 0-447.898-232.038-466.125-232.038-17.818 0-465.92 232.038-465.92 232.038l104.038 56.32c14.746 7.987 32.563 8.397 47.718 1.024l298.189-145.408c10.24-4.915 22.118-4.915 32.358 0l298.189 145.408c15.155 7.373 32.768 6.963 47.718-1.024l103.834-56.32zM980.582 172.544c0 0-443.802-232.038-466.125-232.038s-465.92 232.038-465.92 232.038l104.038 56.32c14.746 7.987 32.563 8.397 47.718 1.024l298.189-145.408c10.24-4.915 22.118-4.915 32.358 0l298.189 145.408c15.155 7.373 32.768 6.963 47.718-1.024l103.834-56.32z" />
<glyph unicode="&#xe917;" glyph-name="fa-file" d="M908.8-64c-264.54 0-529.060 0-793.6 0-22.671 0-40.223 18.514-40.223 40.223 0 314.511 0 629.023 0 943.534 0 21.524 19.866 40.243 36.557 40.243 157.266 0 314.511 0 471.777 0 0.041-10.957 0.123-21.914 0.123-32.87 0.020-90.685-0.143-181.371 0.082-272.056 0.082-35.779 20.5-60.969 51.487-61.092 104.673-0.451 209.347 0.123 314.020 0.287 0-207.237 0-414.474 0-621.711 0-18.391-19.743-36.557-40.223-36.557zM660.541 669.266c0 87.757 0 174.162 0 257.72 84.91-86.18 171.151-173.711 253.932-257.72-78.213 0-165.13 0-253.932 0z" />
<glyph unicode="&#xe918;" glyph-name="far-fa-check-circle" d="M1009.623 478.802c0-20.316 0-40.612 0-60.928-0.737-4.157-1.597-8.294-2.212-12.472-2.99-20.439-4.588-41.165-9.052-61.256-29.901-134.861-103.117-240.415-219.034-315.003-110.551-71.127-231.793-92.959-360.714-68.751-112.435 21.115-205.763 76.616-280.863 162.673-58.388 66.908-96.051 144.097-112.087 231.526-3.994 21.729-6.39 43.745-9.523 65.638-0.492 9.708-1.761 18.514-1.761 27.771 0 9.482 1.208 20.398 1.761 28.467 0.819 4.547 1.679 9.114 2.458 13.66 5.059 29.102 7.987 58.778 15.565 87.224 25.19 94.72 75.346 174.469 148.357 239.985 73.052 65.536 158.126 105.554 254.874 120.504 24.166 3.748 48.742 4.895 73.134 7.229 1.556 0 3.133 0 4.69 0 6.185-0.614 12.39-0.983 18.534-1.884 35.779-5.304 72.253-7.885 107.131-16.691 95.109-24.023 174.756-74.486 240.64-147.272 61.399-67.83 100.68-146.493 118.354-236.012 4.219-21.258 6.554-42.926 9.748-64.41zM513.884 46.51c224.256 0.246 407.716 186.839 399.831 415.171-7.393 213.975-183.91 388.485-402.268 386.58-226.898-1.987-403.251-184.34-399.421-409.764 3.686-216.31 187.228-395.346 401.859-391.987zM434.299 349.491c39.404 40.632 77.885 81.080 117.207 120.668 52.818 53.166 106.291 105.677 159.478 158.454 14.070 13.967 26.501 14.336 40.509 0.737 13.148-12.78 26.132-25.764 38.892-38.932 13.844-14.295 13.681-26.255-0.594-40.428-111.329-110.592-222.7-221.102-334.172-331.551-4.936-4.874-10.199-10.24-16.384-12.841-9.155-3.83-18.166-1.7-25.661 5.837-59.679 60.109-119.542 120.013-179.139 180.204-12.554 12.677-12.083 25.17 0.43 37.868 13.169 13.332 26.419 26.583 39.875 39.608 14.418 13.947 26.173 13.906 40.468-0.43 37.478-37.581 74.752-75.387 112.128-113.070 1.085-1.044 2.273-1.987 6.963-6.124z" />
<glyph unicode="&#xe919;" glyph-name="far-fa-eye" d="M3.174 437.985c-1.229 3.154-3.174 6.676-3.174 10.015 0 3.564 1.741 6.922 3.174 10.67 5.14 10.445 9.83 21.115 15.462 31.273 50.033 90.235 118.784 162.652 206.991 216.33 67.113 40.858 139.694 66.376 217.702 75.96 20.808 2.56 41.247 4.424 62.71 5.468 6.205 0.307 7.762 0.369 13.988 0 3.994-0.348 10.609-0.799 13.599-0.901 71.025-2.273 139.141-18.596 203.592-48.148 128.389-58.88 223.621-151.921 284.099-279.982 1.413-3.953 2.662-7.762 2.662-11.551 0-3.809-1.352-7.332-2.662-11.223-2.13-5.018-3.932-10.24-6.472-15.053-50.79-96.276-121.098-174.715-214.569-231.178-126.648-76.513-263.086-99.41-407.45-68.014-122.86 26.706-224.584 90.317-306.381 185.528-33.935 39.526-63.59 82.063-83.272 130.806zM526.418 702.607c-69.714-0.164-125.501-9.585-179.098-30.249-109.998-42.414-193.352-115.896-252.314-217.641-2.97-5.1-3.215-8.847-0.205-14.049 40.53-70.124 93.737-128.369 162.099-172.114 108.749-69.591 227.246-92.57 353.096-65.331 140.575 30.433 245.596 111.821 318.607 235.295 4.198 7.107 3.564 11.981-0.328 18.575-23.736 40.305-51.753 77.189-85.524 109.65-91.812 88.228-201.421 133.325-316.334 135.864zM323.994 501.535c43.090-20.972 86.712-13.373 116.941 17.695 33.096 33.997 36.844 73.728 17.818 116.306 55.235 22.385 150.098 8.643 208.241-64.307 60.314-75.633 57.18-182.067-7.578-255.324-61.194-69.202-167.895-85.197-247.071-37.581-84.91 51.057-112.435 150.671-88.351 223.212z" />
<glyph unicode="&#xe91a;" glyph-name="far-fa-file-alt" d="M848.384 677.519c0-202.035 0-404.091 0-606.126 0-17.818-7.045-30.863-15.688-42.394-8.643-11.715-31.293-29.286-53.944-29.286-177.48 0-354.939 0-532.419 0-21.709 0-41.882 9.708-50.708 18.924-10.67 10.097-18.924 31.867-18.924 52.756 0 250.511 0 501.023 0 751.514l0.287 1.413c13.537 48.312 41.882 70.39 91.996 70.39 114.627 0 229.253-0.389 343.88 0.287 27.546 0.164 49.459-9.523 68.424-28.57 42.332-42.578 84.603-85.238 127.447-127.283 18.063-17.695 34.099-36.147 39.649-61.624zM764.129 83.661c0 168.509 0 335.892 0 504.054-4.424 0-8.11 0-11.796 0-53.924 0-107.848-0.020-161.772 0-33.628 0.020-49.541 15.852-49.541 49.439-0.020 54.272 0.020 108.524 0.041 162.796 0 3.666 0 7.311 0 11.489-94.065 0-187.003 0-280.228 0 0-242.893 0-485.048 0-727.777 167.936 0 335.319 0 503.296 0zM753.848 671.621c-42.721 42.967-85.852 86.364-128.451 129.208 0-42.148 0-85.565 0-129.208 44.012 0 87.204 0 128.451 0zM512.573 391.557c-45.711 0-91.443 0-137.155 0.020-23.941 0-30.556 6.513-30.556 30.044 0 12.616-0.164 25.252 0.061 37.868 0.225 13.271 8.172 21.524 21.422 22.671 1.7 0.143 3.4 0.102 5.12 0.102 94.167 0 188.334 0.020 282.501-0.041 18.76-0.020 26.419-7.885 26.501-26.89 0.041-11.592-0.164-23.204-0.184-34.796-0.041-21.668-7.148-28.959-28.508-28.959-46.408-0.041-92.815-0.020-139.203-0.020zM512.594 244.756c-46.735 0-93.471-0.041-140.206 0.020-20.337 0.020-27.525 7.332-27.525 27.628 0 11.264 0 22.508 0 33.772 0.020 21.914 7.25 29.041 29.573 29.041 45.036 0.020 90.071 0 135.086 0 47.411 0 94.843 0.020 142.254 0 21.176 0 28.426-7.188 28.467-27.955 0.020-12.616 0.287-25.252 0.164-37.868-0.164-16.282-8.233-24.494-24.556-24.556-47.759-0.143-95.519-0.041-143.278-0.041 0.020 0 0.020-0.020 0.020-0.041z" />
<glyph unicode="&#xe91b;" glyph-name="far-fa-handshake" d="M376.32 770.232c15.299 1.618 34.058 2.54 60.846 0.471 25.068-4.301 49.93-9.175 71.66-23.757 1.905-1.27 6.042-1.516 7.844-0.307 21.688 14.5 49.644 20.787 75.080 22.794 27.238 2.13 40.407 2.867 68.383 1.475 10.547-0.676 18.821-1.864 25.907-2.683 29.184-3.338 55.747-12.82 76.902-32.707 22.979-21.606 44.155-45.199 65.106-68.813 6.574-7.414 12.575-11.1 22.61-10.977 40.694 0.512 81.388-0.348 122.081 0.451 19.415 0.389 37.499-0.717 51.282-16.527 0-102.564 0-205.107 0-307.671-11.981-14.070-27.484-17.428-45.384-17.203-54.579 0.655-109.158 0.061-163.738 0.43-8.602 0.061-13.148-2.232-17.347-10.26-15.77-30.167-41.452-48.189-73.789-57.917-7.496-2.253-15.503-6.513-20.623-12.227-18.78-20.951-40.202-37.13-67.604-44.974-4.178-1.188-8.274-4.239-11.346-7.455-16.732-17.51-36.086-31.621-59.904-36.004-26.808-4.956-53.125-10.998-79.094-19.251-8.806-2.806-18.719-3.256-28.078-2.97-47.432 1.536-88.801 20.029-123.208 51.261-47.043 42.721-91.668 88.084-137.789 131.85-4.506 4.28-12.124 7.332-18.35 7.414-45.548 0.614-91.116 0.307-136.684 0.348-30.249 0.020-40.98 10.711-41.001 41.042-0.041 91.136-0.041 182.252 0 273.388 0.020 29.778 11.162 40.714 41.431 40.714 50.319 0.020 100.639 0.84 150.917-0.451 17.736-0.451 29.901 4.751 41.841 17.613 25.457 27.423 50.954 55.706 87.122 69.427 16.957 6.472 35.287 10.281 54.927 13.476zM675.738 301.507c29.778-6.39 55.214 0.43 71.619 27.32 11.653 19.108 15.217 46.531-12.083 78.254-17.9 20.808-33.198 43.827-50.504 65.208-16.835 20.808-34.714 40.755-52.838 61.911-21.524-24.023-40.53-46.428-60.785-67.645-59.453-62.259-162.918-43.909-195.297 35.389-18.391 45.056-5.837 85.053 26.153 120.463 23.798 26.337 46.387 53.78 70.779 82.227-6.779 2.601-11.899 5.018-17.060 6.328-17.859 4.547-33.71 6.984-52.060 6.758-45.158-0.532-84.234-15.79-112.824-50.668-4.792-5.837-15.647-20.46-29.266-33.075-13.476-12.472-30.7-21.914-48.681-20.132-13.947 1.372-28.14 0.266-42.537 0.266 0-81.715 0-161.669 0-243.917 35.615 8.049 55.951-14.234 77.435-35.82 38.175-38.359 76.554-76.554 116.408-113.111 15.073-13.824 33.3-25.58 52.101-33.608 27.791-11.858 57.569-14.172 84.521 3.523 9.216 6.062 17.183 6.943 27.443 6.042 26.399-2.335 47.841 8.417 61.030 31.007 5.571 9.544 11.203 12.861 21.32 14.131 34.529 4.383 54.497 25.6 65.126 59.146zM855.101 599.921c-6.902 0-13.046 0.676-18.985-0.123-15.606-2.15-26.214 3.666-36.147 16.138-18.616 23.327-38.994 45.281-59.085 67.379-19.968 21.955-45.384 28.058-74.854 30.925-22.794 2.232-42.947 1.249-65.454-0.102-30.597-1.843-55.255-8.745-75.039-32.195-29.082-34.406-58.573-68.485-88.125-102.482-15.094-17.367-19.886-36.782-10.67-57.917 9.441-21.668 26.993-33.526 50.668-35.983 26.542-2.744 46.428 8.561 63.263 28.262 24.637 28.856 50.074 57.037 75.264 85.402 8.602 9.687 19.272 16.507 32.399 12.575 14.418-4.321 20.664-15.217 19.64-30.72-0.246-3.891 2.97-8.663 5.816-12.001 17.797-20.972 37.437-40.55 53.617-62.648 31.293-42.721 73.155-78.971 84.111-134.205 14.828 0 28.856 0 43.602 0-0.020 75.633-0.020 150.446-0.020 227.697zM85.094 371.958c16.404-0.102 28.385 11.981 28.447 28.713 0.061 16.118-11.284 27.873-27.279 28.262-16.876 0.41-29-11.141-29.184-27.812-0.164-16.753 11.653-29.061 28.017-29.164zM939.295 428.933c-16.015-0.266-27.484-11.899-27.566-27.996-0.082-16.732 11.796-28.959 28.18-28.979 16.364-0.020 28.324 12.186 28.283 28.897-0.041 16.671-12.063 28.344-28.897 28.078z" />
<glyph unicode="&#xe91c;" glyph-name="far-fa-newspaper" d="M1024 756.49c0-206.049 0-412.099 0-618.148-9.933-24.474-28.426-32.174-54.19-32.133-286.966 0.532-573.932 0.328-860.918 0.348-5.202 0-10.404 0-15.585 0.287-28.549 1.556-51.466 14.070-70.185 35.41-12.78 14.541-23.122 38.216-23.122 50.196 0 169.288 0 338.555 0 507.843 4.157 28.201 30.065 31.273 57.59 31.212 16.876-0.020 38.728-0.102 50.319 0.225 7.598 0.205 11.305 2.191 15.073 8.909 5.304 9.462 12.063 18.412 19.599 26.235 14.295 14.848 33.464 19.681 53.064 22.897 262.943 0 525.885 0 788.808 0 19.476-3.625 32.686-14.664 39.547-33.28zM938.394 191.98c0 170.783 0 340.89 0 511.549-246.538 0-492.503 0-739.451 0 0-170.783 0-340.849 0-511.549 246.456 0 492.81 0 739.451 0zM84.849 646.574c0-4.526 0-7.967 0-11.407 0-140.37 0-280.719 0-421.089 0-15.708 4.772-23.040 14.664-22.712 10.015 0.328 14.377 7.393 14.377 23.368 0 140.022 0 280.023 0 420.045 0 3.707 0 7.414 0 11.796-10.035 0-18.862 0-29.041 0zM426.332 404.828c-38.461 0-76.923-0.041-115.384 0.020-18.473 0.020-26.44 7.885-26.481 26.542-0.102 53.699-0.123 107.418 0 161.137 0.041 17.961 8.253 26.153 26.010 26.153 77.619 0.061 155.238 0.061 232.858 0 16.998-0.020 25.313-8.376 25.354-25.62 0.082-54.395 0.061-108.81-0.041-163.205-0.041-16.916-8.479-24.965-25.887-25.006-38.81-0.061-77.619-0.020-116.429-0.020zM356.332 546.816c0-23.757 0-46.817 0-70.349 47.206 0 93.798 0 140.698 0 0 23.777 0 46.838 0 70.349-47.227 0-93.86 0-140.698 0zM426.107 277.074c-38.134 0-76.288-0.061-114.422 0.020-19.784 0.041-26.993 7.127-27.218 26.644-0.143 12.124-0.266 24.289 0.184 36.393 0.471 12.841 7.619 20.275 20.378 21.996 2.724 0.369 5.53 0.348 8.294 0.348 75.592 0.020 151.183 0.020 226.775-0.020 3.789 0 7.639-0.225 11.366-0.942 9.769-1.905 16.937-9.503 17.347-19.476 0-10.629-0.123-22.385 0.020-33.198 0.184-25.293-9.462-32.481-31.416-31.99-37.11 0.819-74.22 0.225-111.309 0.225zM739.656 533.381c-29.102 0-58.204-0.041-87.306 0.020-18.432 0.020-25.928 7.332-26.092 25.416-0.102 11.776-0.123 23.552-0.020 35.348 0.143 15.831 8.356 24.289 24.412 24.474 23.204 0.266 46.428 0.102 69.632 0.102 35.348 0 70.676 0.061 106.025-0.020 19.436-0.041 27.095-7.762 27.136-26.952 0.020-10.732 0.041-21.484 0.020-32.215-0.041-18.248-7.516-26.010-25.477-26.051-29.45-0.082-58.9-0.020-88.351-0.020 0.020-0.061 0.020-0.082 0.020-0.102zM740.209 277.074c-29.102 0-58.204-0.082-87.327 0.020-19.538 0.061-26.604 7.332-26.644 27.054-0.020 11.428-0.123 22.876 0 34.304 0.164 14.705 8.069 23.224 22.856 23.88 11.756 0.532 23.552 0.184 35.328 0.205 46.776 0.020 93.553 0.041 140.329 0 21.545-0.020 28.59-7.107 28.692-28.549 0.041-10.732 0.082-21.484 0-32.215-0.123-16.732-7.905-24.576-24.904-24.658-29.43-0.143-58.88-0.041-88.33-0.041zM739.594 490.148c29.819 0 59.617 0.041 89.436-0.020 16.22-0.041 24.269-7.926 24.412-23.962 0.102-12.82 0.205-25.661 0-38.482-0.205-13.476-8.417-22.63-21.832-22.692-61.358-0.287-122.716-0.287-184.054-0.041-12.616 0.061-20.992 9.339-21.217 22.118-0.246 13.865-0.287 27.73 0 41.595 0.266 12.861 8.847 21.299 21.75 21.361 30.495 0.164 61.010 0.061 91.505 0.061 0 0.020 0 0.041 0 0.061z" />
<glyph unicode="&#xe91d;" glyph-name="fas-fa-bell" d="M495.698-61.112c-22.917 5.612-45.117 12.78-63.529 28.467-29.532 25.17-45.67 56.648-46.326 96.666 84.111 0 167.301 0 251.863 0 1.495-21.033-4.485-40.325-14.377-58.327-19.845-36.106-49.316-58.819-90.132-65.761-1.331-0.287-2.765-0.696-4.915-1.065-5.427-0.901-10.977-1.454-16.404-1.454s-10.732 0.041-16.179 1.475zM449.126 852.152c0 13.537-0.082 26.706 0.020 39.854 0.287 36.434 27.156 63.099 62.362 64.41 28.713 1.065 64.205-23.368 63.447-64.225-0.246-13.148-0.041-26.296-0.041-38.564 22.774-7.987 45.24-14.049 66.191-23.491 94.781-42.721 156.754-114.115 179.732-215.962 7.414-32.85 8.131-67.461 9.667-101.356 3.052-67.379 13.292-132.854 44.974-193.413 15.77-30.147 37.786-55.624 61.256-79.872 19.743-20.398 25.887-43.827 15.258-70.103-11.141-27.566-33.444-39.526-62.464-39.547-149.709-0.082-299.438-0.041-449.147-0.041-101.622 0-203.244-0.061-304.865 0.041-34.243 0.020-56.648 15.77-65.946 47.329-6.963 23.634 0.143 44.175 17.060 61.563 23.572 24.228 45.343 49.787 61.522 79.77 22.364 41.411 35.164 85.934 39.916 132.342 4.137 40.407 3.83 81.285 7.741 121.733 7.352 75.899 38.052 141.271 93 194.703 42.025 40.878 91.955 67.502 148.726 81.613 3.686 0.86 7.311 2.007 11.592 3.215z" />
<glyph unicode="&#xe91e;" glyph-name="fas-fa-book" d="M924.119-64c-231.199 0-462.397 0-693.596 0-1.372 0.635-2.683 1.7-4.096 1.884-25.907 3.338-49.951 12.206-71.7 26.317-56.689 36.782-90.071 88.371-90.358 156.754-0.881 217.805-0.369 435.61-0.246 653.414 0 9.277 1.044 18.637 2.335 27.853 11.837 84.992 93.184 156.774 178.77 157.532 45.67 0.41 91.361 0.246 137.032 0.246 175.288 0 350.577 0.020 525.885-0.102 6.922 0 14.234-0.184 20.664-2.376 21.586-7.393 30.863-23.081 30.863-50.504 0.020-217.805 0.020-435.61 0-653.414 0-5.468 0.246-12.534-0.451-16.302-3.072-10.117-7.188-19.763-11.571-29.614-1.618-3.645-6.595-10.26-6.779-15.483-0.225-7.434-0.512-81.326-0.307-119.439 0.061-12.063 0.778-18.985 10.097-29.307 5.386-5.98 7.086-16.056 8.54-24.617 1.413-8.356 0.942-16.916 0.614-25.702-1.106-28.283-9.298-47.145-35.697-57.139zM825.856 63.693c0 42.803 0 84.746 0 128.246-3.85 0-8.417 0-12.964 0-140.964 0-281.907 0.020-422.871-0.020-46.469-0.020-92.938 0.573-139.387-0.573-36.209-0.881-63.939-35.594-59.085-71.496 4.772-35.185 31.58-56.627 71.352-56.648 183.91-0.061 367.821-0.020 551.731 0 3.789 0.020 7.598 0.328 11.223 0.492zM543.293 639.713c26.132 0 52.285 0 78.418 0 42.926 0 85.832-0.082 128.758 0.061 14.602 0.041 18.063 3.625 18.35 17.9 0.164 8.97 0.061 17.94 0.041 26.911-0.041 17.736-2.703 20.48-20.275 20.5-136.561 0.020-273.121 0.020-409.682 0.020-1.946 0-3.912-0.041-5.857-0.020-9.093 0.020-13.763-4.772-14.049-13.619-0.287-8.97-0.143-17.94-0.143-26.911 0-23.286 1.475-24.801 24.269-24.801 66.744-0.041 133.468-0.041 200.172-0.041zM543.519 511.775c69.059 0 138.117-0.020 207.176 0.020 14.397 0 17.92 3.543 18.186 17.92 0.143 7.803 0.041 15.606 0.020 23.409 0 21.75-2.294 24.064-24.187 24.064-134.205 0.020-268.431 0-402.637 0-2.724 0-5.468 0.020-8.192-0.041-9.953-0.266-15.073-5.222-14.991-15.36 0.082-10.527-0.061-21.053 0-31.601 0.102-15.155 3.338-18.391 18.616-18.391 68.69-0.041 137.359-0.020 206.008-0.020z" />
<glyph unicode="&#xe91f;" glyph-name="fas-fa-bookmark" d="M495.473 885.309l-298.168-524.104 400.425-226.324 203.96 364.38-290.202 164.106-32.563-56.32-107.11-195.379 178.258-100.803 77.476 137.687-100.762 57.016 21.32 37.663 138.424-78.275-119.972-213.156-253.256 143.258 182.19 327.148 364.974-206.459-246.231-439.951-476.058 269.087 319.631 561.766-86.692 49.029-366.715-648.643 648.499-366.715 366.694 648.643z" />
<glyph unicode="&#xe920;" glyph-name="fas-fa-book-open" d="M571.945 54.989c-0.983-0.389-2.15-0.717-3.174-0.717s-2.089 0.369-2.97 0.717c-21.094 7.721-24.822 13.148-24.822 36.332 0 141.926-0.020 283.853 0 425.8 0 65.516 0.205 131.011-0.041 196.526-0.041 13.046 3.4 23.9 15.524 29.819 25.375 12.349 50.463 25.539 76.677 35.779 58.593 22.917 119.931 36.106 182.006 44.974 44.175 6.308 88.719 9.933 133.12 14.541 17.469 1.823 34.959 0.246 47.882-12.575 8.376-8.294 13.537-19.825 20.132-29.901 0-204.083 0-408.187 0-612.27-10.138-30.638-32.174-43.008-63.549-44.032-27.177-0.881-54.333-3.932-81.388-6.963-103.526-11.612-204.8-32.051-299.397-78.029zM8.806 184.013c0 204.083 0 408.187 0 612.27 16.978 35 32.768 44.933 66.888 42.557 67.359-4.669 134.369-12.268 200.438-26.501 65.72-14.152 129.864-32.829 188.826-66.58 13.947-7.987 19.354-18.084 19.333-33.69-0.287-206.684-0.41-413.348 0.061-620.032 0.041-18.432-5.366-30.863-22.979-37.048-0.799-0.287-2.499-0.758-4.301-0.758-1.597 0-3.256 0.573-3.891 0.758-4.997 2.109-10.097 3.973-14.95 6.349-38.625 19.005-79.237 32.42-120.852 42.865-82.801 20.808-167.096 31.601-252.191 36.495-15.626 0.901-30.085 4.731-40.366 16.609-6.697 7.721-10.772 17.715-16.015 26.706z" />
<glyph unicode="&#xe921;" glyph-name="fas-fa-book-reader" d="M563.753-63.283c-14.356 7.332-19.149 18.862-19.108 35 0.41 156.856 0.451 313.713-0.143 470.569-0.082 19.456 6.308 31.621 23.552 41.083 55.378 30.372 114.852 48.906 175.964 62.505 67.215 14.95 135.475 23.429 204.145 28.262 46.1 3.236 61.624-7.066 75.837-48.599 0-151.88 0-303.759 0-455.639-8.376-33.792-31.457-47.165-64.717-48.64-68.424-3.052-136.172-11.981-203.223-26.030-60.887-12.759-120.443-29.532-175.944-58.511-5.448 0-10.916 0-16.364 0zM0.717 523.203c3.645 21.094 12.616 39.322 33.915 46.346 12.472 4.116 26.706 5.325 39.916 4.444 87.757-5.919 174.674-17.674 259.543-41.656 44.544-12.575 87.572-29 127.959-52.040 12.513-7.127 18.125-16.63 18.104-31.109-0.225-159.949-0.287-319.877 0.123-479.826 0.041-15.729-6.185-25.702-19.292-32.645-5.448 0-10.895 0-16.364 0-11.080 5.345-21.914 11.264-33.28 15.933-96.645 39.67-198.472 55.808-301.588 65.925-13.537 1.331-27.156 1.925-40.735 2.683-42.762 2.376-54.907 11.407-68.28 50.995-0.020 150.303-0.020 300.626-0.020 450.949zM511.713 575.939c-105.923 0.799-191.857 86.958-190.628 192.205 1.311 112.353 93.86 190.812 192.614 190.198 101.622-0.614 191.078-84.234 190.054-193.823-0.963-104.059-87.777-189.379-192.041-188.58z" />
<glyph unicode="&#xe922;" glyph-name="fas-fa-briefcase" d="M0 86.692c0 98.98 0 197.96 0 296.94 126.525 0.041 253.030 0.082 379.556 0.082 1.065 0 2.13-0.635 4.26-1.311 0-29.389-0.164-58.88 0.041-88.371 0.184-25.108 12.329-37.499 37.151-37.581 60.723-0.184 121.467-0.184 182.19 0 24.945 0.061 36.987 12.39 37.13 37.54 0.143 25.702 0 51.384 0 77.087 0 4.076 0 8.172 0 12.063 3.011 0.389 4.157 0.676 5.284 0.676 126.136-0.041 252.252-0.123 378.388-0.184 0-98.98 0-197.96 0-296.94-7.107-16.036-12.349-33.3-21.77-47.841-14.295-22.016-37.642-32.113-62.382-38.666-284.447 0-568.893 0-853.34 0-26.010 5.632-49.889 16.077-64.778 38.83-9.441 14.438-14.623 31.683-21.729 47.677zM1024 619.786c0-56.893 0-113.787 0-170.68-5.059-0.184-10.097-0.512-15.155-0.512-331.223-0.041-662.467-0.041-993.69-0.020-5.059 0-10.097 0.348-15.155 0.532 0 56.893 0 113.787 0 170.68 0.655 0.901 1.679 1.741 1.905 2.744 11.059 50.565 49.029 81.408 100.454 81.428 44.81 0.020 89.6 0 134.41 0 6.124 0 12.247 0 19.681 0 0 5.366-0.020 9.564 0 13.742 0.143 29.225-0.512 58.47 0.594 87.654 1.843 48.415 45.691 90.194 94.331 90.296 106.742 0.225 213.484 0.225 320.225 0.061 42.68-0.061 82.063-30.659 92.672-72.028 2.478-9.646 3.031-19.988 3.174-30.024 0.389-29.512 0.143-59.003 0.143-89.702 5.612 0 9.789 0 13.967 0 49.091 0 98.181 0.287 147.251-0.102 28.467-0.225 51.323-12.841 70.349-33.71 13.21-14.52 19.804-31.969 24.842-50.36zM639.611 767.16c-85.258 0-169.861 0-255.078 0 0-21.115 0-41.513 0-62.566 85.299 0 169.902 0 255.078 0 0 21.012 0 41.411 0 62.566z" />
<glyph unicode="&#xe923;" glyph-name="fas-fa-cash-register" d="M972.575-63.16c-307.036 0-614.093 0-921.129 0-13.926 5.53-28.59 10.793-36.577 24.289-6.287 10.609-9.994 22.733-14.848 34.181 0 65.475 0 130.949 0 196.424 3.461 19.866 7.045 39.69 10.363 59.576 14.602 87.388 29.368 174.756 43.561 262.205 6.574 40.55 30.331 61.891 71.25 61.972 49.848 0.102 99.717 0.020 149.565 0 4.157 0 8.315 0 12.554 0 0 43.684 0 85.832 0 128.614-5.284 0-9.544 0-13.783 0-56.484 0-112.968-0.020-169.431 0.020-27.546 0.020-39.199 11.53-39.219 38.871-0.061 59.208 0.553 118.436-0.328 177.644-0.328 21.135 10.854 38.646 38.38 38.523 166.318-0.758 332.636-0.696 498.954-0.041 26.214 0.102 38.277-15.299 38.072-38.851-0.471-59.208-0.082-118.436-0.164-177.644-0.041-26.481-12.186-38.564-38.543-38.584-57.262-0.041-114.524-0.020-171.766-0.020-4.157 0-8.315 0-12.739 0 0-43.5 0-85.688 0-128.696 5.407 0 10.015 0 14.643 0 155.423 0 310.825 0.041 466.248-0.020 41.308-0.020 64.532-18.391 71.537-58.552 13.251-76.124 25.498-152.412 38.195-228.618 5.489-32.911 11.080-65.823 16.63-98.714 0-63.918 0-127.836 0-191.734-2.499-8.438-4.157-17.265-7.66-25.272-8.397-19.19-25.231-28.59-43.766-35.574zM543.99 863.519c-128.020 0-255.16 0-382.751 0 0-21.463 0-42.209 0-62.956 128.082 0 255.181 0 382.751 0 0 21.053 0 41.206 0 62.956zM512 96.788c0-0.020 0-0.020 0-0.041-9.728 0-19.476 0-29.204 0-47.104 0-94.228 0.082-141.332-0.041-16.794-0.041-21.647-5.018-21.893-21.524-0.102-6.615-0.041-13.23-0.020-19.866 0.061-18.637 4.854-23.695 23.245-23.736 35.43-0.102 70.861-0.020 106.291-0.020 77.865 0.020 155.73-0.020 233.615 0.061 16.425 0.020 21.647 5.304 21.955 21.606 0.102 6.226 0.041 12.452 0.020 18.698-0.082 20.275-4.506 24.842-24.453 24.863-56.095 0.041-112.169 0-168.223 0zM512.328 240.128c0 0.020 0 0.061 0 0.082 5.448 0 10.895-0.307 16.323 0.061 18.022 1.188 29.676 11.694 31.355 29.839 1.106 11.94 1.126 24.166-0.041 36.106-1.864 19.087-14.377 29.86-33.546 30.331-10.117 0.246-20.234 0.369-30.331-0.102-17.715-0.819-30.228-11.981-31.846-29.614-1.126-12.329-1.126-24.924 0.082-37.233 1.761-18.022 13.66-28.426 31.662-29.409 5.448-0.307 10.916-0.061 16.343-0.061zM704.758 240.353c0-0.041 0-0.102 0-0.143 5.059 0 10.117-0.225 15.155 0.041 18.616 1.024 30.679 11.899 32.195 30.351 0.942 11.592 0.84 23.368-0.020 34.98-1.311 17.981-14.049 30.003-32.010 30.822-10.875 0.492-21.811 0.614-32.666 0.082-17.224-0.84-29.573-12.001-30.925-29.041-1.044-13.107-0.922-26.44 0.184-39.547 1.331-15.647 12.677-26.092 28.262-27.443 6.574-0.573 13.23-0.102 19.825-0.102zM607.867 399.831c4.669 0 9.318-0.082 13.988 0.020 20.562 0.471 33.546 12.82 34.365 33.157 0.43 10.465 0.655 20.992-0.020 31.437-1.229 19.333-13.967 31.089-33.403 31.478-9.708 0.205-19.415 0.205-29.123 0.020-20.255-0.389-32.666-12.042-33.731-32.297-0.573-10.834-0.492-21.77 0.225-32.604 1.229-18.76 13.763-30.454 32.563-31.15 5.038-0.184 10.076-0.020 15.135-0.061zM415.519 399.831c5.059 0 10.117-0.123 15.155 0.020 19.087 0.553 32.051 11.633 33.382 30.351 0.922 13.087 0.614 26.46-0.901 39.506-1.802 15.544-13.885 25.559-29.45 26.071-11.264 0.369-22.548 0.369-33.812 0.082-16.568-0.41-29.409-10.875-31.171-27.218-1.413-13.046-1.536-26.46-0.246-39.506 1.782-18.309 14.479-28.754 33.075-29.286 4.628-0.143 9.298-0.020 13.967-0.020zM225.198 495.841c0 0.041 0 0.082 0 0.102-4.669 0-9.339 0.061-14.008 0-21.484-0.307-34.243-12.186-35.287-33.505-0.492-10.097-0.532-20.275 0.246-30.351 1.536-20.193 14.213-31.867 34.263-32.215 10.117-0.184 20.255-0.369 30.351 0.102 16.138 0.758 29.225 11.551 30.577 26.747 1.249 13.885 1.434 28.037 0.164 41.902-1.475 16.138-13.783 26.399-29.942 27.156-5.468 0.287-10.916 0.061-16.364 0.061zM319.898 240.415c0-0.061 0-0.123 0-0.184 4.669 0 9.339-0.143 14.008 0.020 21.893 0.819 33.751 12.472 34.345 34.243 0.287 10.875 0.451 21.832-0.532 32.666-1.495 16.343-13.476 27.976-29.757 29.020-11.633 0.737-23.388 0.84-35 0.123-15.913-1.004-28.262-11.121-29.819-26.296-1.495-14.582-1.331-29.573 0.205-44.155 1.516-14.316 13.455-24.084 27.894-25.334 6.185-0.553 12.431-0.102 18.657-0.102zM799.601 496.005c-4.28 0-8.561 0.041-12.82 0-21.709-0.287-34.099-11.899-34.918-33.423-0.41-10.854-0.492-21.811 0.348-32.625 1.372-17.736 13.496-29.245 31.089-29.962 10.875-0.451 21.77-0.43 32.645-0.041 17.613 0.655 30.29 11.776 31.949 29.409 1.167 12.308 1.024 24.924-0.143 37.253-1.761 18.289-14.561 29.041-32.952 29.389-5.079 0.082-10.138 0-15.196 0z" />
<glyph unicode="&#xe924;" glyph-name="fas-fa-chart-pie" d="M420.352-29.962c-17.203 0.41-35.594 3.768-53.064 8.172-80.056 16.241-150.61 51.671-211.374 106.332-88.678 79.79-141.722 178.606-151.142 297.8-10.363 131.174 30.188 246.374 120.156 342.876 70.615 75.735 158.065 120.791 260.239 137.298 19.354 3.133 34.427-8.376 36.495-28.201 0.41-3.973 0.205-8.028 0.225-12.042 0-139.899 0.143-279.798-0.266-419.717-0.020-10.506 3.338-17.51 10.506-24.658 91.628-91.238 183.009-182.723 274.432-274.186 3.604-3.604 7.27-7.27 10.22-11.387 10.056-14.090 6.902-31.293-7.332-41.226-66.703-46.531-140.575-73.277-221.655-80.077-4.157-0.451-13.885-1.27-20.931-1.72-5.612-0.512-14.356-0.246-18.248-0.246-10.486 0.020-23.921 0.594-28.262 0.983zM512.451 479.232c0 5.243 0 9.155 0 13.087 0 132.506 0 265.032 0 397.537 0 27.566 10.609 38.789 37.56 36.966 61.604-4.157 119.788-21.156 173.691-51.139 125.153-69.632 203.018-174.346 230.871-315.351 2.888-14.623 4.895-29.491 6.246-44.339 2.191-23.941-9.564-36.577-33.546-36.721-34.673-0.205-69.366-0.123-104.038-0.123-98.57 0.020-197.12 0.041-295.69 0.061-4.608 0.020-9.236 0.020-15.094 0.020zM549.069 388.28c31.068 0 59.556 0 88.023 0 115.425-0.020 230.851 0.020 346.276-0.143 6.451 0 13.292-0.451 19.292-2.56 12.657-4.444 20.091-15.196 17.654-29.245-4.506-25.805-9.175-51.855-17.162-76.739-22.589-70.39-61.501-131.092-114.033-183.091-16.425-16.261-32.338-16.896-48.497-0.737-95.355 95.252-190.628 190.607-285.901 285.942-1.454 1.454-2.683 3.133-5.652 6.574z" />
<glyph unicode="&#xe925;" d="M1022.73 448c0-282.069-228.662-510.73-510.73-510.73s-510.73 228.662-510.73 510.73c0 282.069 228.662 510.73 510.73 510.73s510.73-228.662 510.73-510.73z" />
<glyph unicode="&#xe926;" d="M834.109 559.206l-382.3-382.3c-11.653-11.653-30.536-11.653-42.189 0l-51.118 51.118c-11.653 11.653-11.653 30.536 0 42.189l382.321 382.321c11.653 11.653 30.536 11.653 42.189 0l51.118-51.118c11.633-11.674 11.633-30.556-0.020-42.209z" />
<glyph unicode="&#xe927;" d="M281.723 490.803l224.215-224.215c9.646-9.646 9.646-25.293 0-34.939l-58.348-58.348c-9.646-9.646-25.293-9.646-34.939 0l-224.236 224.215c-9.646 9.646-9.646 25.293 0 34.939l58.348 58.348c9.646 9.667 25.293 9.667 34.959 0z" />
<glyph unicode="&#xe928;" glyph-name="fas-fa-code-branch" d="M127.242 783.79c-1.188 11.94-1.065 23.122 0.184 34.386 0.41 3.297 0.84 6.431 1.27 9.032 13.804 84.582 93.757 142.889 178.483 131.318 70.758-9.667 128.246-66.396 137.155-135.352 9.605-74.281-30.044-143.217-98.816-170.742-8.52-3.4-11.612-7.25-11.571-16.753 0.451-87.388 0.266-174.776 0.266-262.164 0-4.239 0-8.499 0-13.025 2.048 0.143 3.297-0.061 4.26 0.369 37.089 16.63 76.657 22.733 116.531 27.546 43.684 5.263 87.45 9.871 131.011 15.995 24.842 3.502 48.681 11.551 68.69 27.423 24.822 19.702 32.154 47.555 34.345 77.66 0.532 7.311-1.638 9.912-8.356 12.37-62.628 22.979-103.24 79.462-105.615 146.063-2.519 70.902 44.544 136.233 113.213 157.184 68.465 20.89 144.65-5.591 183.071-65.372 13.23-20.582 19.374-34.406 24.781-66.15 1.393-6.881 1.495-15.135 1.495-21.381 0-7.025-0.369-14.111-1.249-20.685-0.696-1.741-0.778-5.612-1.106-7.414-10.772-59.167-47.841-96.522-102.298-120.914-3.727-1.679-7.107-7.475-7.864-11.858-2.99-17.224-3.379-35-7.414-51.937-17.285-72.745-64.901-116.859-134.656-138.813-55.48-17.469-113.336-20.050-170.619-26.112-32.174-3.4-64.348-7.127-94.372-20.378-13.988-6.164-26.358-14.438-33.976-29.307 3.83-1.884 6.922-3.379 9.974-4.936 54.19-27.505 86.221-71.066 90.829-131.912 4.69-61.85-20.644-110.367-71.414-145.818-20.214-14.111-43.315-21.094-67.195-24.945-13.169-1.802-25.846-1.311-39.076-0.102-2.417 0.328-4.669 0.881-6.922 1.311-62.792 11.837-104.387 48.456-125.891 108.175-3.502 9.728-4.997 17.695-6.676 29.553-2.191 15.258-1.331 23.368-0.655 36.106 0.676 4.485 1.106 6.205 1.516 8.438 11.284 60.457 45.896 101.806 102.666 124.682 6.39 2.58 7.475 6.328 7.475 12.37-0.123 127.16-0.143 254.321 0.020 381.501 0 6.492-2.028 9.155-8.253 11.592-33.198 12.964-60.047 34.017-79.196 64.471-12.616 20.111-20.193 39.711-24.044 68.526zM287.396 832.512c-17.51 0.737-32.461-13.005-33.26-30.556-0.819-18.043 13.005-33.3 30.986-34.14 17.572-0.84 32.973 13.824 33.423 31.826 0.451 17.244-13.66 32.133-31.15 32.87zM734.843 640.102c17.736 0 31.826 13.947 32.010 31.744 0.205 18.002-14.438 32.563-32.625 32.461-17.797-0.102-31.662-13.947-31.908-31.887-0.266-18.289 13.824-32.297 32.522-32.317zM318.587 95.703c0.082 17.326-14.418 32.072-31.764 32.317-18.309 0.266-32.809-14.049-32.748-32.276 0.061-17.654 14.356-32.338 31.58-32.44 18.186-0.102 32.87 14.336 32.932 32.399z" />
<glyph unicode="&#xe929;" glyph-name="fas-fa-eye" d="M8.253 429.015c-1.147 3.482-1.638 6.84-1.638 10.322 0 3.359 0.328 6.656 1.638 10.158 2.253 5.243 4.137 10.691 6.799 15.708 50.893 96.44 121.774 174.305 215.552 230.584 70.164 42.107 145.94 67.686 227.574 75.366 15.872 1.495 31.785 2.621 47.677 3.932 4.772 0 9.564 0 14.336 0 5.038-0.594 19.845-0.901 24.904-1.331 18.985-1.659 28.365-2.54 47.165-5.427 74.547-11.407 144.323-36.495 208.22-76.677 95.109-59.802 167.834-139.837 215.286-242.156 1.311-3.42 2.519-6.738 2.519-10.179 0-3.379-1.434-7.496-2.519-10.301-2.335-5.98-4.116-12.288-7.107-17.92-59.822-112.783-145.613-199.25-261.161-254.566-114.074-54.62-233.574-67.625-356.741-39.916-106.762 24.023-198.205 76.698-274.493 155.136-44.933 46.182-82.842 97.423-108.012 157.266zM512.369 690.975c-140.165-0.205-252.764-113.132-252.539-253.235 0.225-138.65 114.504-252.846 251.986-251.802 140.513 1.065 252.989 113.48 252.457 252.355-0.532 140.001-113.070 252.887-251.904 252.682zM469.176 599.532c75.919 21.484 153.58-13.967 190.403-81.121 36.065-65.761 23.040-147.456-32.092-200.704-52.736-50.913-136.786-60.928-198.533-23.634-66.191 39.977-98.365 116.879-77.885 187.29 39.281-22.548 77.537-22.098 109.691 11.325 30.536 31.744 30.147 68.71 8.417 106.844z" />
<glyph unicode="&#xe92a;" glyph-name="fas-fa-file-invoice" d="M858.706-64c-231.096 0-462.193 0-693.289 0-19.005 7.148-31.846 20.091-37.478 39.813 0 314.634 0 629.268 0 943.903 8.888 30.802 30.208 40.489 60.989 40.284 124.047-0.881 248.095-0.369 372.163-0.369 4.506 0 8.991 0 14.479 0 0-6.513 0-11.141 0-15.77 0-81.92 0-163.84 0-245.76 0-40.407 18.104-58.532 58.552-58.532 82.309-0.020 164.618 0 246.927-0.041 5.038 0 10.076-0.573 15.114-0.881 0-221.716 0-443.453 0-665.17-6.779-18.186-19.108-30.843-37.458-37.478zM512.287 512.553c-71.803 0-143.606 0-215.409 0-30.659 0-41.697-10.875-41.738-41.431-0.061-58.143-0.061-116.285 0-174.428 0.020-30.249 11.407-41.452 42.004-41.452 143.606-0.020 287.191-0.020 430.797 0 29.839 0 41.021 11.162 41.042 41.042 0.041 58.143 0.020 116.285 0 174.428 0 30.597-11.1 41.841-41.308 41.841-71.782 0.020-143.585 0-215.388 0zM352.727 704.696c-25.723 0-51.446 0.123-77.169-0.041-14.111-0.102-19.763-5.693-20.316-19.804-0.307-7.782-0.287-15.606 0-23.388 0.594-16.261 5.857-21.484 22.262-21.627 21.443-0.184 42.865 0 64.307 0 28.058 0 56.115-0.184 84.173 0.020 17.265 0.123 22.385 5.448 22.589 22.385 0.082 6.615 0.061 13.251 0 19.886-0.143 17.142-5.366 22.528-22.18 22.569-24.556 0.061-49.111 0-73.667 0zM671.601 64.164c26.132 0 52.285-0.205 78.418 0.082 12.82 0.143 17.388 5.059 17.736 17.9 0.246 8.97 0.205 17.94 0.020 26.911-0.246 12.247-5.468 18.514-17.51 18.596-51.876 0.328-103.772 0.266-155.648 0.041-10.158-0.041-17.142-5.284-17.818-16.159-0.573-9.318-0.881-18.698-0.492-28.017 0.614-14.418 5.755-19.231 20.398-19.333 24.965-0.184 49.93-0.041 74.895-0.020zM352.256 768.901c24.965 0 49.93-0.143 74.895 0.061 15.155 0.123 20.193 5.1 20.931 20.214 0.369 7.393 0.348 14.828 0.020 22.221-0.635 15.36-6.308 20.89-21.565 21.381-5.059 0.164-10.138 0.041-15.217 0.041-43.684 0-87.368 0.041-131.052-0.020-18.575-0.020-23.736-5.14-23.839-23.224-0.041-6.246-0.041-12.472 0-18.719 0.123-17.777 3.891-21.729 22.098-21.893 24.576-0.225 49.152-0.061 73.728-0.061zM896.184 704.225c-27.668 0.225-55.357 0.573-83.026 0.635-52.654 0.102-105.308 0.020-157.962 0.020-4.239 0-8.458 0-13.537 0 0 84.931 0 168.919 0 253.686 18.186 3.236 33.403-1.372 46.51-14.623 34.017-34.386 68.301-68.506 102.482-102.707 27.013-27.034 54.518-53.617 80.835-81.326 9.667-10.179 16.548-22.979 24.699-34.591 0-7.025 0-14.049 0-21.094zM703.365 446.771c0-41.861 0-83.087 0-125.276-127.037 0-254.321 0-382.3 0 0 41.533 0 83.046 0 125.276 127.57 0 254.546 0 382.3 0z" />
<glyph unicode="&#xe92b;" glyph-name="fas-fa-file-invoice-dollar" d="M128.020-24.187c0 315.372 0 630.764 0 946.135 10.711 29.86 32.604 38.318 63.078 38.052 123.29-1.065 246.579-0.451 369.869-0.43 4.506 0 9.032 0 14.623 0 0-6.41 0-11.018 0-15.626 0-81.94 0-163.881 0-245.801 0-40.448 17.981-58.552 58.491-58.593 82.33-0.061 164.659 0 246.968-0.061 5.038 0 10.076-0.594 15.114-0.901 0-221.696 0-443.412 0-665.108-6.738-18.248-19.067-30.884-37.478-37.478-231.076 0-462.152 0-693.207 0-19.046 7.086-31.744 20.152-37.458 39.813zM479.56 123.453c0-11.1-0.266-25.866 0.082-40.612 0.328-13.353 6.164-19.108 19.476-19.681 8.172-0.348 16.384-0.246 24.576-0.041 15.36 0.369 20.808 5.98 20.972 21.647 0.143 13.947 0.041 27.914 0.041 42.271 25.559 2.724 47.063 11.919 62.935 31.191 42.906 52.060 21.32 126.566-42.824 147.497-28.836 9.4-58.081 17.551-87.122 26.358-11.981 3.645-17.347 12.636-18.412 24.412-0.942 10.465 8.54 25.498 18.862 29.307 22.405 9.871 43.479 8.561 66.171-1.946 35-12.39 34.714-13.148 60.826 12.841 0.553 0.553 1.106 1.106 1.638 1.679 9.974 10.936 9.359 22.364-3.748 28.938-18.104 9.093-37.294 16.077-58.327 24.924 0 10.67 0.143 25.027-0.041 39.383-0.205 14.807-6.021 20.521-20.541 20.664-7.414 0.061-14.828 0.061-22.241 0-16.794-0.123-22.18-5.53-22.323-22.63-0.102-13.558-0.020-27.095-0.020-36.618-18.596-8.704-36.291-13.844-50.135-24.166-28.59-21.34-39.588-51.999-33.485-86.958 6.554-37.458 29.635-61.809 66.007-73.052 26.747-8.253 53.637-16.077 80.507-23.982 10.322-3.031 18.309-8.335 21.32-19.395 4.854-17.859-7.209-35.656-27.628-38.011-20.664-2.376-42.639-3.379-60.969 6.676-25.928 14.213-40.878 1.761-56.525-15.831-10.936-12.308-11.244-22.733 3.42-30.413 17.654-9.196 36.7-15.749 57.508-24.453zM351.949 704.594c-25.723 0-51.425 0.164-77.148-0.061-12.861-0.102-18.719-5.612-19.395-18.289-0.512-9.318-0.532-18.719 0.102-28.037 0.86-12.8 6.369-17.981 19.395-18.391 12.452-0.41 24.945-0.123 37.396-0.123 38.584 0.020 77.148-0.164 115.732 0.143 14.5 0.123 20.111 5.878 20.541 19.62 0.246 8.172 0.205 16.364 0.020 24.556-0.307 14.684-6.021 20.48-20.664 20.562-25.334 0.143-50.668 0.041-75.981 0.020zM352.338 768.799c24.965 0 49.93-0.143 74.875 0.061 15.114 0.123 20.152 5.1 20.89 20.255 0.369 7.393 0.348 14.828 0.020 22.221-0.676 15.36-6.349 20.869-21.606 21.34-5.837 0.184-11.694 0.041-17.551 0.041-43.295 0-86.589 0.061-129.884-0.041-17.080-0.041-22.467-5.468-22.63-22.077-0.061-6.246-0.041-12.472 0-18.719 0.082-19.251 3.666-22.917 23.306-23.040 24.207-0.143 48.394-0.041 72.581-0.041zM896.184 704.164c-27.668 0.205-55.357 0.553-83.026 0.614-52.654 0.102-105.308 0.020-157.962 0.020-4.219 0-8.458 0-13.558 0 0 84.91 0 168.899 0 253.686 18.719 3.523 33.997-1.884 47.37-15.38 47.493-47.923 95.293-95.56 142.991-143.278 13.517-13.517 27.73-26.419 40.325-40.735 9.073-10.301 15.974-22.487 23.859-33.833 0-7.045 0-14.070 0-21.094z" />
<glyph unicode="&#xe92c;" glyph-name="fas-fa-gavel" d="M64.102 136.909c2.376 20.972 15.135 35.41 29.45 49.582 60.846 60.252 121.876 120.32 181.453 181.78 27.935 28.815 64.84 30.372 91.853 0.696 1.085-1.208 2.499-2.13 2.97-2.519 47.35 47.35 94.29 94.29 140.636 140.636-21.873 21.832-44.749 44.626-70.144 69.939-1.741-2.744-3.338-6.84-6.226-9.585-18.493-17.49-41.902-17.633-60.334-0.164-13.107 12.431-25.969 25.19-38.339 38.359-17.49 18.616-17.818 40.632-0.573 59.515 12.636 13.844 26.296 26.747 39.567 40.018 57.631 57.651 115.302 115.302 172.933 172.954 9.38 9.38 19.456 16.609 33.731 16.732 12.861 0.123 23.142-4.444 31.969-13.312 11.796-11.837 23.757-23.532 35.41-35.492 20.070-20.603 20.132-43.438 0.348-64.061-2.109-2.212-4.69-3.973-5.857-4.956 66.376-66.376 132.076-132.055 198.779-198.779 1.126 1.085 4.137 4.096 7.27 6.984 18.657 17.224 42.127 17.326 60.375-0.143 12.8-12.268 25.989-24.33 37.356-37.847 6.472-7.7 10.793-14.828 14.295-27.423 0.512-3.359 0.225-5.079 0-8.192-1.782-8.786-6.82-17.654-12.923-23.818-72.479-73.257-145.367-146.104-218.399-218.788-15.503-15.421-39.485-16.118-55.583-1.495-15.38 13.988-30.106 28.774-44.134 44.093-14.111 15.38-13.885 37.11-0.676 53.33 3.604 4.444 7.721 8.458 11.182 12.227-23.286 23.020-46.203 45.711-68.465 67.727-46.244-46.244-93.184-93.204-140.349-140.39 0 0 0.737-1.167 1.741-2.048 30.986-27.505 28.549-65.413-0.492-93.409-60.662-58.491-119.603-118.764-179.036-178.524-12.534-12.616-24.945-25.047-42.312-30.843-3.707-1.249-7.557-2.109-11.264-2.109-3.809 0-7.7 0.86-11.264 2.109-16.507 4.895-28.959 15.565-40.653 27.709-17.961 18.637-36.209 37.028-54.927 54.886-14.275 13.619-26.481 28.099-29.327 48.456-0.041 2.068-0.041 4.116-0.041 6.164z" />
<glyph unicode="&#xe92d;" glyph-name="fas-fa-hand-holding-usd" d="M0 199.393c7.864 16.425 21.176 21.668 38.851 21.074 26.296-0.901 52.654-0.532 78.971 0.020 5.345 0.102 11.612 2.171 15.811 5.448 24.535 19.19 48.66 38.912 72.765 58.655 40.714 33.341 87.429 49.521 139.899 49.5 91.116-0.020 182.231 0.102 273.347-0.041 42.414-0.061 70.021-32.829 59.638-71.373-6.185-22.958-22.958-35.533-45.793-40.079-6.39-1.27-13.066-1.536-19.62-1.556-42.967-0.143-85.914 0.123-128.881-0.184-20.439-0.143-32.829-14.336-30.147-33.423 1.679-11.981 11.1-21.832 22.979-23.552 4.424-0.635 8.991-0.594 13.476-0.594 62.71-0.041 125.44 0.942 188.109-0.41 37.356-0.799 68.69 10.588 97.28 34.161 49.398 40.735 99.779 80.241 149.688 120.34 40.366 32.42 87.572 11.059 95.764-25.805 0.184-0.84 0.922-5.222 1.208-6.574 1.188-9.032 0.573-11.592-0.266-16.957-4.854-16.466-14.438-29.204-27.996-39.977-71.291-56.627-141.926-114.074-213.34-170.537-32.010-25.334-60.948-56.115-103.854-64-219.034 0-438.067 0-657.080 0-11.264 0-20.787 8.54-20.787 20.808-0.020 61.665-0.020 123.351-0.020 185.057zM585.994 845.701c18.575-6.513 35.779-12.411 52.859-18.657 3.502-1.27 6.779-3.502 9.789-5.775 9.626-7.311 11.715-19.517 3.359-28.14-11.776-12.165-24.044-24.105-37.642-34.099-5.407-3.973-15.462-4.751-22.364-2.97-28.815 7.414-57.876 3.318-86.835 3.564-8.561 0.082-14.438-5.222-14.93-14.213-0.492-9.032 5.1-13.844 13.312-16.036 31.744-8.438 63.59-16.527 95.232-25.395 32.727-9.175 59.105-27.32 74.097-58.655 21.197-44.298 3.113-96.87-42.045-121.938-11.284-6.267-24.207-10.035-36.803-13.353-6.451-1.7-8.602-3.83-8.212-10.158 0.451-7.25 0.348-14.561 0.020-21.832-0.737-16.241-11.899-28.078-28.18-29.020-11.735-0.676-23.593-0.696-35.308 0.082-17.306 1.167-27.566 12.472-28.017 29.942-0.266 9.626-0.041 19.272-0.041 26.522-19.579 7.086-37.806 12.452-54.948 20.214-20.357 9.216-21.729 23.818-5.284 38.769 8.97 8.151 18.043 16.22 26.726 24.658 8.049 7.844 17.121 9.687 27.689 6.717 28.959-8.151 58.511-3.359 87.818-3.686 7.762-0.082 12.984 5.448 13.599 13.251 0.676 8.684-4.014 14.234-12.595 16.507-31.416 8.294-62.915 16.323-94.188 25.108-35.308 9.912-63.263 29.245-77.926 64.307-13.64 32.625-5.571 71.68 19.354 97.178 17.51 17.94 38.236 29.553 63.017 33.362 5.98 0.922 7.311 3.645 7.107 8.95-0.287 7.619-0.246 15.258 0 22.876 0.492 15.995 11.284 27.505 27.32 28.283 12.083 0.594 24.269 0.594 36.352-0.082 16.589-0.901 27.279-12.431 27.709-29.102 0.164-9.626-0.041-19.272-0.041-27.177z" />
<glyph unicode="&#xe92e;" glyph-name="fas-fa-hands-wash" d="M409.252-61.624c-23.142 6.328-46.469 12.001-69.304 19.231-10.568 3.338-20.173 9.687-28.303 13.722 3.092 22.63 8.151 43.54 8.397 64.492 0.84 69.939-48.333 133.55-116.019 151.552-8.929 2.376-11.51 5.755-11.53 14.787-0.123 41.329-0.020 82.555 14.848 121.999 28.529 75.756 81.142 127.263 157.88 152.474 68.956 22.651 138.609 43.213 208.077 64.307 32.461 9.851 60.006-6.021 65.516-36.864 4.137-23.183-9.605-44.319-35.041-53.617-25.907-9.462-51.855-18.78-77.783-28.18-2.478-0.901-4.895-1.987-7.373-4.895 3.871-0.164 7.762-0.492 11.633-0.492 123.761-0.020 247.521 0.061 371.282-0.184 8.806-0.020 18.063-0.922 26.296-3.789 22.262-7.782 33.935-28.652 30.29-51.671-3.584-22.692-22.958-39.404-47.821-39.67-45.138-0.471-90.296-0.164-135.434-0.184-37.745 0-75.489 0.041-113.254-0.020-14.152-0.020-21.279-5.304-21.565-15.688-0.307-10.752 7.291-16.753 21.852-16.753 100.024-0.061 200.049-0.532 300.073 0.205 30.474 0.225 51.876-10.076 61.46-40.182 0-4.669 0-9.339 0-14.008-13.005-33.587-24.76-41.533-61.174-41.533-99.205 0.020-198.41 0.020-297.615 0-3.891 0-8.847 1.208-11.428-0.676-5.079-3.768-11.878-9.073-12.268-14.193-0.389-5.079 5.345-11.715 10.056-15.729 2.908-2.478 8.909-1.782 13.517-1.782 77.804-0.082 155.607-0.041 233.431-0.102 6.595 0 13.271 0.041 19.804-0.84 30.106-4.035 48.108-33.628 38.154-62.341-7.107-20.521-24.412-31.601-50.299-31.642-79.749-0.102-159.498-0.020-239.268-0.102-5.018 0-10.22-0.123-15.012-1.434-8.151-2.253-13.353-8.765-10.752-16.589 1.823-5.509 7.967-10.179 13.169-13.763 2.683-1.843 7.557-0.614 11.448-0.614 56.791-0.020 113.603 0.041 170.394-0.123 7.352-0.020 14.889-0.328 21.996-2.007 17.961-4.239 30.413-15.114 35.512-33.219 4.956-17.633 0.614-33.423-12.268-46.039-5.878-5.755-13.844-9.339-20.869-13.906-150.241 0.061-300.462 0.061-450.703 0.061zM0.573 629.719c2.212 5.263 3.994 10.772 6.697 15.77 9.933 18.35 31.334 28.672 51.077 24.965 21.299-4.014 37.274-19.948 39.014-42.148 2.232-28.303 2.601-56.73 3.83-85.115 0.164-3.625 0.676-7.25 1.024-10.875 0.983-0.164 1.946-0.348 2.929-0.512 1.864 5.612 3.789 11.182 5.571 16.814 36.434 115.22 72.95 230.4 109.138 345.702 5.919 18.862 15.237 34.324 34.816 40.714 16.855 5.509 32.461 1.516 45.466-10.301 13.763-12.513 19.231-28.57 13.988-46.51-10.24-35.062-21.484-69.816-32.44-104.653-14.336-45.588-28.836-91.136-43.151-136.724-4.055-12.943-0.676-22.036 8.929-25.293 9.728-3.297 17.756 2.028 21.934 15.217 30.515 96.317 60.723 192.717 91.628 288.891 3.461 10.793 8.95 21.893 16.404 30.249 13.926 15.647 37.56 17.736 55.726 7.455 18.964-10.752 27.976-32.584 21.565-55.439-6.39-22.815-13.947-45.322-21.053-67.932-20.746-65.987-41.554-131.932-62.3-197.919-5.366-17.080-2.908-26.235 7.66-29.553 10.957-3.441 17.981 2.417 23.388 19.599 20.972 66.703 42.004 133.386 62.853 200.131 5.468 17.469 15.831 30.29 33.505 35.901 17.51 5.571 33.321 0.963 46.305-11.346 13.926-13.21 17.613-30.106 12.308-48.251-7.844-26.849-16.589-53.412-25.006-80.097-13.189-41.882-26.644-83.702-39.465-125.686-2.335-7.66-6.308-11.264-13.783-13.558-50.463-15.544-102.031-28.406-150.917-47.985-113.746-45.548-179.63-130.929-196.772-252.477-3.502-24.863-2.007-50.442-2.785-75.715-0.123-4.116-0.020-8.233-0.020-16.323-12.165 7.885-21.914 13.087-30.413 19.886-54.661 43.745-87.859 99.697-95.396 169.984-0.369 3.441-1.495 6.799-2.253 10.199 0 80.998 0 161.956 0 242.934zM629.576 601.907c-34.857 13.128-67.379 5.181-101.929-7.987 2.888 9.585 5.059 17.142 7.414 24.617 11.141 35.512 22.098 71.086 33.628 106.476 6.062 18.657 18.514 31.642 38.318 35.103 17.756 3.092 32.973-3.052 44.585-16.998 10.793-12.984 13.169-28.18 8.499-43.889-9.523-31.908-19.886-63.59-30.515-97.321zM767.263 832.881c-35.185 0.471-64.266 30.044-63.263 64.328 1.024 35.553 29.266 62.362 65.229 61.952 34.202-0.389 62.362-28.815 62.054-62.648-0.328-35.041-29.553-64.102-64.020-63.631zM1023.427 609.751c0-52.867-42.857-95.724-95.724-95.724s-95.724 42.857-95.724 95.724c0 52.867 42.857 95.724 95.724 95.724s95.724-42.857 95.724-95.724zM258.314 32.727c0-53.251-43.169-96.42-96.42-96.42s-96.42 43.169-96.42 96.42c0 53.251 43.169 96.42 96.42 96.42s96.42-43.169 96.42-96.42z" />
<glyph unicode="&#xe92f;" glyph-name="fas-fa-landmark" d="M512.594 129.946c-144.425 0-288.85 0.082-433.295-0.184-8.294-0.020-11.203 1.331-10.977 10.506 0.717 28.713 0.225 57.467 0.266 86.221 0.020 15.913 9.359 26.931 24.945 29.921 9.257 1.782 18.616 1.556 27.853 0.963 8.253-0.532 10.22 2.191 10.199 10.281-0.287 98.263 0.020 196.526-0.471 294.769-0.061 11.121 2.376 14.111 13.701 13.824 33.751-0.86 67.564-0.676 101.315-0.041 9.933 0.184 13.046-1.884 12.984-12.575-0.492-97.874-0.123-195.748-0.532-293.601-0.041-10.117 2.171-12.82 12.554-12.718 55.91 0.594 111.821 0.512 167.731 0.061 9.257-0.082 11.53 2.478 11.489 11.592-0.328 98.652-0.061 197.284-0.43 295.936-0.041 9.298 2.54 11.428 11.489 11.284 34.55-0.532 69.12-0.778 103.649 0.082 10.957 0.266 12.288-3.441 12.247-12.984-0.348-97.874-0.061-195.748-0.43-293.601-0.041-9.523 2.212-12.411 12.022-12.329 56.3 0.471 112.599 0.471 168.878-0.020 9.073-0.082 10.65 2.683 10.609 11.059-0.287 98.263-0.041 196.506-0.41 294.769-0.041 9.83 1.741 13.312 12.493 13.066 34.918-0.778 69.878-0.614 104.817-0.020 8.847 0.143 10.732-2.273 10.711-10.854-0.328-98.652-0.061-197.284-0.451-295.936-0.041-9.748 2.376-12.861 12.083-12.042 9.216 0.778 18.596 0.86 27.812-1.249 13.804-3.133 22.979-14.623 23.020-29.204 0.041-28.344-0.41-56.709 0.246-85.053 0.225-9.38-1.7-12.165-11.735-12.145-141.332 0.389-282.644 0.266-423.977 0.266-3.502 0-6.984 0-10.486 0 0.082 0 0.082-0.020 0.082-0.041zM994.038-60.928h-960.942c-16.425 0-29.737 13.312-29.737 29.737v67.891c0 16.425 13.312 29.737 29.737 29.737h960.942c16.425 0 29.737-13.312 29.737-29.737v-67.891c0-16.425-13.312-29.737-29.737-29.737zM992.174 773.571l-478.618 186.429-478.904-186.429c-17.367-7.864-31.58-14.152-31.58-31.58v-70.595c0-17.449 14.131-31.58 31.58-31.58h957.522c17.449 0 31.58 14.131 31.58 31.58v70.595c0 17.428-15.135 24.146-31.58 31.58zM928.195 256.922h-829.276c-16.896 0-30.597-13.701-30.597-30.597v-96.584h890.47v96.584c0 16.896-13.701 30.597-30.597 30.597z" />
<glyph unicode="&#xe930;" d="M740.086-5.427c0.041 4.096 0.061 9.626 0.061 13.763-0.041 162.181 0.061 324.342-0.246 486.523-0.020 9.298 2.56 13.947 11.244 17.838 75.1 33.69 149.914 68.014 224.891 101.99 23.941 10.854 33.649 7.926 47.657-13.455 0-154.624 0-309.248 0-463.872-6.308-20.091-17.736-35.369-38.134-43.397-57.18-22.548-114.237-45.384-171.233-68.342-23.921-9.626-47.616-19.804-71.414-29.716-0.676-0.287-2.273-0.963-2.826-1.331z" />
<glyph unicode="&#xe931;" d="M0.41 480.584c7.762 25.006 26.071 37.847 49.725 46.961 62.976 24.228 125.399 49.93 188.068 74.998 2.519 1.004 5.14 1.7 6.738 2.212 12.82-26.685 25.498-52.736 37.765-78.971 1.516-3.236 1.229-7.455 1.229-11.223 0.061-131.707 0.020-263.414 0.123-395.121 0-6.308-0.737-10.527-7.68-13.66-79.831-35.881-159.478-72.212-239.165-108.442-0.573-0.266-2.642-1.147-4.69-2.212-5.202-2.007-9.851-4.178-14.705-4.178-13.169 0-18.309 7.619-17.408 25.764 0 154.624 0 309.248 0 463.872z" />
<glyph unicode="&#xe932;" d="M678.441-4.096c-9.257 3.523-18.391 7.393-27.75 10.527-100.004 33.423-200.028 66.765-300.114 99.963-5.796 1.925-9.032 3.83-9.011 11.1 0.287 102.216 0.205 204.411 0.205 306.627 0 1.331 0.184 2.642 0.492 6.595 5.55-7.619 9.687-13.681 14.193-19.436 29.471-37.581 58.143-75.817 88.76-112.435 37.519-44.851 97.669-44.38 134.758 0.922 32.215 39.363 62.771 80.097 94.044 120.238 2.294 2.929 4.506 5.919 8.561 11.305 0-146.924 0-292.782 0-437.002-0.492 0.143-4.137 1.597-4.137 1.597z" />
<glyph unicode="&#xe933;" d="M518.84 905.052c94.188 0.205 182.252-67.645 209.039-163.922 14.705-52.859 5.693-101.827-17.428-149.934-33.976-70.697-79.217-134.021-126.935-195.748-15.258-19.722-31.191-38.932-47.084-58.143-15.135-18.268-33.014-18.575-48.148-0.512-61.010 72.806-118.866 147.907-163.328 232.325-17.756 33.731-35.267 68.321-35.84 107.295-1.27 83.374 34.202 148.337 103.711 194.232 36.209 23.9 76.554 34.714 126.013 34.406zM511.857 607.13c41.185-0.164 74.895 33.157 75.018 74.179 0.123 41.452-33.69 75.551-75.039 75.653-40.038 0.123-74.281-33.853-74.65-74.015-0.389-41.492 33.239-75.633 74.67-75.817z" />
<glyph unicode="&#xe934;" d="M511.857 607.13c-41.431 0.164-75.059 34.304-74.67 75.837 0.369 40.161 34.632 74.117 74.65 74.015 41.37-0.123 75.182-34.202 75.039-75.653-0.123-41.021-33.833-74.363-75.018-74.199z" />
<glyph unicode="&#xe935;" glyph-name="fas-fa-microphone" d="M343.224-64c-18.043 8.008-25.006 22.139-23.327 41.37 0.512 5.816 0.041 11.694 0.082 17.551 0.164 23.491 12.493 36.291 36.004 36.475 32.379 0.287 64.758 0.061 97.157 0.102 3.092 0 6.185 0.287 10.936 0.512 0 21.545 0.287 42.844-0.43 64.102-0.061 2.109-6.062 5.202-9.646 5.816-46.715 8.028-89.682 25.17-129.27 51.241-50.934 33.505-90.337 77.476-119.132 130.908-31.662 58.737-46.858 121.59-45.138 188.477 0.594 23.388-0.041 46.817 0.082 70.226 0.123 19.784 11.919 31.928 31.826 32.666 9.748 0.348 19.517 0.328 29.266 0.041 21.074-0.635 33.116-12.636 33.505-33.853 0.635-34.324-0.614-68.731 1.577-102.953 7.148-112.148 86.323-217.723 204.247-242.135 142.828-29.573 284.201 68.915 303.37 212.603 5.284 39.567 2.908 80.138 4.055 120.238 0.184 6.226-0.041 12.513 0.696 18.678 1.823 14.971 12.8 26.051 27.709 26.952 12.82 0.778 25.764 0.84 38.584-0.020 16.118-1.085 27.505-13.23 27.566-29.286 0.184-42.127 1.987-84.398-0.737-126.362-4.383-67.707-28.508-128.942-69.673-183.009-43.172-56.689-98.365-97.362-165.868-120.443-21.258-7.27-43.418-11.878-66.314-18.022 0-20.726 0-42.701 0-66.355 4.485 0 8.622 0 12.739 0 30.822 0 61.645 0.123 92.467-0.041 26.092-0.123 37.868-11.919 38.236-37.827 0.082-5.468-0.369-10.957 0.082-16.384 1.597-19.21-5.427-33.362-23.532-41.247-112.374-0.020-224.748-0.020-337.121-0.020zM703.652 607.314c0-53.453 0.84-106.926-0.184-160.358-1.905-98.57-69.837-174.92-167.178-189.338-101.724-15.073-201.708 61.379-213.996 163.84-1.393 11.571-2.191 23.306-2.212 34.959-0.164 102.236-0.655 204.452 0.082 306.688 0.594 82.514 38.175 143.053 112.579 179.425 88.801 43.418 205.722 2.58 249.364-85.996 15.319-31.109 22.077-63.713 21.811-98.222-0.389-50.34-0.102-100.659-0.102-150.999-0.061 0-0.123 0-0.164 0z" />
<glyph unicode="&#xe936;" glyph-name="fas-fa-money-check" d="M978.678 89.211c-311.030 0-622.039 0-933.069 0-29.798 6.103-45.814 26.051-45.609 61.501 0.942 163.226 0.389 326.472 0.389 489.718 0 3.953 0 7.885 0 11.899 341.832 0 682.496 0 1023.201 0 0.184-1.946 0.389-3.174 0.389-4.424 0.020-168.858 0.102-337.715-0.164-506.573-0.020-7.823-1.946-16.159-5.059-23.368-7.455-17.244-22.712-24.74-40.079-28.754zM358.523 447.672c0-0.020 0-0.041 0-0.061-78.95 0-157.901 0.020-236.851-0.020-15.872 0-19.661-3.953-19.722-19.927-0.020-2.499 0-4.997 0-7.496 0-19.784 3.441-23.204 23.388-23.224 152.904-0.041 305.828-0.082 458.732-0.123 29.921 0 30.863 0.963 30.74 30.802-0.082 16.466-3.359 19.968-19.395 19.988-78.991 0.082-157.942 0.061-236.892 0.061zM820.367 499.528c-24.637 0-49.275 0.020-73.912 0-18.76-0.020-28.918-9.585-29.471-28.508-0.43-15.258-0.43-30.556 0-45.834 0.512-18.432 10.404-28.365 28.754-28.447 49.582-0.266 99.164-0.246 148.746-0.041 17.49 0.082 27.709 10.711 27.894 28.18 0.143 15.278 0.082 30.556-0.020 45.834-0.102 18.555-10.363 28.754-29.041 28.815-24.289 0.061-48.62 0-72.95 0zM255.427 294.072c0 0.020 0 0.041 0 0.061-41.206 0-82.391 0-123.597 0-30.085 0-30.085 0-30.024-30.228 0.020-16.712 4.26-20.992 20.91-20.992 77.722 0 155.423 0 233.144 0 12.493 0 24.965-0.225 37.458 0.102 11.141 0.287 15.729 5.243 15.79 16.097 0.020 4.997 0 9.994 0 14.971 0 17.613-2.232 19.948-19.784 19.968-44.646 0.041-89.272 0.020-133.898 0.020zM819.405 294.216c-9.052 0-18.104 0-27.156 0-19.046 0.020-38.093 0.184-57.119 0.020-13.66-0.123-17.469-4.137-17.736-17.92-0.102-4.997-0.082-9.994 0-14.991 0.246-14.131 4.465-18.391 18.493-18.432 25.6-0.061 51.2 0 76.8 0 30.29 0 60.559-0.041 90.849 0.020 14.234 0.020 18.883 4.813 18.964 19.19 0.020 4.362 0.020 8.745 0 13.107-0.102 14.971-3.85 18.903-18.78 18.944-28.119 0.123-56.218 0.061-84.316 0.061zM0.614 705.249c0 27.259-0.389 53.76 0.164 80.261 0.266 12.472 11.612 21.135 26.276 21.197 39.977 0.143 79.933 0.061 119.91 0.061 281.969 0 563.937 0.020 845.885-0.246 7.127 0 15.155-1.577 21.115-5.181 4.608-2.765 9.585-9.789 9.769-15.053 0-4.69 0-75.592-0.020-81.060-340.972 0.020-681.472 0.020-1023.099 0.020z" />
<glyph unicode="&#xe937;" glyph-name="fas-fa-photo-video" d="M676.618 38.482c-211.845 0-423.67 0-635.515 0-29.983 10.076-40.161 31.252-39.977 62.239 0.881 146.657 0.369 293.315 0.451 439.972 0 7.414-0.246 15.135 1.577 22.2 6.328 24.351 26.44 37.806 55.255 37.806 200.253 0.020 400.486-0.184 600.74 0.164 34.017 0.061 57.836-22.303 57.692-57.242-0.635-149.463-0.246-298.926-0.348-448.389 0-6.492-0.287-13.169-1.823-19.415-4.997-20.029-19.517-30.822-38.052-37.335zM460.964 446.996c-68.157-68.157-135.905-135.905-205.107-205.107-17.367 17.449-34.099 34.284-50.893 51.159-33.26-33.178-66.109-65.925-98.918-98.714-1.27-1.27-2.949-2.949-2.97-4.465-0.205-16.343-0.143-32.686-0.143-49.193 171.192 0 341.074 0 511.857 0 0 3.994 0 7.352 0 10.711 0 44.216-0.123 88.433 0.143 132.649 0.041 6.738-1.761 11.51-6.615 16.323-46.879 46.49-93.491 93.245-140.186 139.899-2.171 2.171-4.444 4.198-7.168 6.738zM155.075 498.319c-27.894 0.553-51.507-22.18-52.142-50.196-0.635-28.303 22.221-51.814 50.934-52.388 27.484-0.553 51.261 22.815 51.63 50.77 0.389 27.914-22.344 51.261-50.422 51.814zM767.918 242.319c0 171.11 0 340.767 0 511.14-102.277 0-203.899 0-306.422 0 0-33.71 0-67.195 0-101.315-85.463 0-170.004 0-255.98 0 0 2.785 0 5.755 0 8.724 0 46.715 0.86 93.45-0.328 140.145-0.696 27.587 20.521 54.886 54.886 54.784 236.093-0.717 472.187-0.369 708.28-0.389 27.914 0 46.264-12.534 52.695-36.536 1.659-6.164 1.823-12.882 1.823-19.333 0.082-167.24-0.328-334.479 0.348-501.719 0.143-34.12-24.125-55.869-56.115-55.644-63.222 0.471-126.464 0.143-189.686 0.123-2.703 0.020-5.448 0.020-9.503 0.020zM895.119 344.842c0-0.020 0-0.020 0-0.041 7.475 0 14.95 0 22.426 0 0.307 0 0.614 0 0.942 0 9.626 0.43 15.462 5.345 15.77 14.848 0.471 15.544 0.492 31.15-0.020 46.694-0.307 9.38-5.775 14.991-14.479 15.196-15.872 0.389-31.764 0.471-47.636 0-8.438-0.246-14.316-4.956-14.52-13.947-0.369-16.179-0.471-32.379-0.041-48.558 0.246-9.052 5.898-13.885 15.155-14.152 7.455-0.205 14.93-0.041 22.405-0.041zM332.595 677.458c0-0.020 0-0.061 0-0.082 7.475 0 14.95-0.123 22.426 0.020 10.875 0.225 16.364 4.977 16.691 15.749 0.471 14.93 0.43 29.901-0.020 44.831-0.307 9.912-6.001 15.708-15.892 16.015-15.237 0.471-30.536 0.512-45.773-0.041-9.523-0.348-14.643-5.693-14.828-14.705-0.328-15.872-0.307-31.764 0-47.636 0.164-8.704 5.345-13.722 14.049-14.111 7.762-0.307 15.544-0.041 23.347-0.041zM896.225 677.458c0-0.020 0-0.041 0-0.082 7.168 0 14.316-0.123 21.484 0.020 10.813 0.246 16.241 5.038 16.548 15.872 0.43 14.93 0.41 29.88-0.082 44.81-0.328 9.912-6.042 15.606-15.974 15.913-14.93 0.451-29.88 0.451-44.81 0.020-9.994-0.287-15.38-5.489-15.606-14.909-0.369-15.852-0.389-31.744 0-47.596 0.205-8.724 5.509-13.64 14.193-13.988 8.049-0.307 16.138-0.061 24.248-0.061zM895.508 511.14c7.168 0 14.316-0.102 21.484 0.020 11.387 0.225 16.937 5.1 17.244 16.22 0.41 14.623 0.43 29.266 0.041 43.868-0.287 10.588-5.898 16.22-16.282 16.486-14.93 0.369-29.88 0.369-44.81 0-10.097-0.246-15.319-5.714-15.524-15.913-0.287-14.93-0.266-29.88 0-44.81 0.184-10.629 5.509-15.565 16.404-15.831 7.127-0.164 14.275-0.020 21.443-0.041z" />
<glyph unicode="&#xe938;" glyph-name="fas-fa-project-diagram" d="M399.626 39.424c-16.077 5.509-30.003 13.967-36.475 30.515-2.765 7.066-4.301 15.073-4.321 22.671-0.328 65.987-0.266 131.973-0.164 197.96 0.061 33.321 21.484 54.968 54.907 55.071 65.679 0.225 131.359 0.225 197.018-0.020 32.891-0.123 54.129-21.504 54.252-54.6 0.246-65.987 0.205-131.973 0.041-197.96-0.061-25.784-12.616-44.237-36.741-53.146-1.106-0.389-2.437-0.492-2.437-0.492-75.346 0-150.712 0-226.079 0zM409.211 397.066c-38.277-1.577-66.478-18.432-87.491-50.196-2.109 3.256-3.973 5.816-5.53 8.54-35.471 62.013-71.025 123.965-106.148 186.163-3.973 7.045-8.397 9.134-16.138 9.073-45.773-0.348-91.546-0.266-137.318-0.123-28.017 0.082-46.612 13.107-53.555 37.356-1.249 4.383-1.556 9.155-1.556 13.763-0.082 67.891-0.184 135.762 0.020 203.653 0.082 24.945 14.131 43.131 37.376 49.5 2.949 0.799 6.103 1.147 9.155 1.167 70.369 0.061 140.739 0.225 211.108-0.082 24.781-0.102 45.609-20.255 47.124-45.199 0.901-14.889 0.451-29.88 0.594-44.81 0.041-3.359 0-6.717 0-10.916 119.583 0 238.080 0 357.335 0 0-34.284 0-67.707 0-102.195-118.661 0-237.425 0-357.335 0 0-19.026 0.737-37.048-0.225-54.968-0.799-14.643 3.174-26.972 10.506-39.506 29.471-50.401 58.143-101.253 87.101-151.962 1.536-2.662 2.908-5.407 4.977-9.257zM869.581 856.125c32.072 0 64.225-1.311 96.215 0.348 33.628 1.741 57.569-23.429 56.812-56.381-1.454-64.43-0.389-128.922-0.492-193.393 0-6.185 0.020-12.575-1.454-18.514-5.673-22.753-24.801-37.417-50.524-37.581-66.949-0.389-133.919-0.532-200.868 0.041-31.785 0.287-52.081 20.357-52.408 52.142-0.676 66.949-0.020 133.919-0.307 200.868-0.123 30.863 24.474 54.047 54.927 52.756 32.645-1.352 65.393-0.287 98.099-0.287z" />
<glyph unicode="&#xe939;" glyph-name="fas-fa-search-dollar" d="M961.024 93.921c0-2.724 0-5.468 0-8.192-3.4-13.701-11.674-24.105-21.811-33.526-10.199-9.482-19.333-20.152-29.778-29.327-9.523-8.376-20.173-15.483-30.331-23.142-8.008-2.58-13.373-2.785-20.48 0-7.434 5.12-15.831 9.257-22.159 15.503-56.218 55.706-111.985 111.862-168.1 167.67-10.588 10.527-15.811 22.692-15.421 37.499 0.184 7.373 0.041 14.766 0.041 23.654-3.912-2.376-6.246-3.564-8.335-5.1-50.422-36.966-106.435-59.965-168.591-67.83-93.655-11.858-179.61 8.561-256.594 63.14-79.319 56.238-128.819 132.69-148.050 228.127-3.809 18.903-5.366 32.236-6.636 51.794-0.84 11.346-0.348 17.408 0.123 25.743 0.635 6.41 0.655 13.271 1.167 19.681 2.294 28.692 5.693 45.466 11.633 67.338 22.344 82.207 68.628 148.5 137.4 198.738 79.585 58.122 168.96 79.135 265.933 65.72 87.757-12.124 161.034-52.982 219.894-119.050 51.855-58.204 82.309-126.444 89.661-204.001 8.724-92.201-13.988-176.456-68.506-251.761-1.864-2.56-3.338-5.407-5.878-9.544 6.758 0 11.51-0.41 16.159 0.061 20.255 2.089 35.615-5.673 49.848-20.214 52.531-53.637 105.861-106.496 159.13-159.416 9.687-9.585 17.592-19.743 19.681-33.567zM429.056 279.306c139.489 0.369 252.047 113.48 251.617 252.928-0.41 138.936-113.213 251.597-251.945 251.617-139.674 0.041-252.826-113.766-252.17-253.604 0.635-138.916 113.705-251.31 252.498-250.941zM400.671 671.949c0 8.95-0.328 17.101 0.082 25.231 0.553 10.895 5.018 15.524 15.79 16.179 8.151 0.492 16.384 0.307 24.556 0.020 9.789-0.348 14.643-6.042 15.053-15.483 0.43-10.26 0.532-21.811 1.126-23.368 0.983-2.478 11.96-5.222 24.33-9.134 9.114-2.867 18.719-7.7 27.361-12.964 9.462-5.755 10.015-15.135 2.417-23.368-1.843-2.007-4.239-3.523-5.96-5.591-11.162-13.455-21.811-17.408-41.185-11.182-22.569 9.38-44.257 8.417-65.864 2.806-9.216-1.004-16.036-11.203-16.609-21.074-0.655-11.182 6.021-21.156 17.49-24.719 24.719-7.68 49.521-15.053 74.342-22.405 20.582-6.103 36.332-18.309 47.002-36.884 27.976-48.62-1.802-109.527-57.344-117.514-1.966-0.287-3.871-0.922-6.717-1.597 0-8.315 0.287-16.466-0.061-24.576-0.512-12.042-5.181-16.384-17.183-16.589-7.496-0.123-15.012-0.184-22.528 0.041-10.322 0.307-14.991 4.526-15.852 14.787-0.573 6.779-0.532 13.66-0.225 20.46 0.266 5.693-2.458 6.676-7.516 8.294-15.053 4.813-30.126 10.117-44.298 17.039-10.465 5.1-10.076 13.373-1.946 22.118 2.56 2.744 5.161 6.41 7.393 9.359 10.322 13.578 21.463 16.957 37.827 8.438 8.294-4.321 20.070-4.465 30.228-4.833 10.22-0.369 19.005-0.86 30.597 2.028 12.001 0.369 20.070 7.475 22.077 18.78 1.987 11.244-3.564 22.446-14.664 26.296-16.384 5.693-33.178 10.22-49.766 15.319-11.715 3.604-23.593 6.799-35 11.203-32.481 12.493-52.552 46.203-49.152 81.531 3.297 34.202 29.102 62.566 62.935 69.161 3.359 0.635 6.676 1.29 11.264 2.191z" />
<glyph unicode="&#xe93a;" glyph-name="fas-fa-university" d="M518.533 840.561c23.941-9.503 47.759-19.292 71.823-28.447 109.384-41.595 218.788-83.087 328.274-124.375 9.626-3.625 13.824-8.745 13.824-19.681 0-4.526 0-15.401-0.123-20.46-0.287-11.53-4.608-16.138-16.118-16.384-12.861-0.287-25.743-0.061-39.506-0.061 0-6.083 0.020-10.793 0-15.503-0.102-18.637-8.172-26.808-26.706-26.829-93.123-0.020-186.245-0.020-279.388-0.020-130.642 0-261.304 0-391.946 0-23.654 0-30.474 6.717-30.495 30.167 0 3.666 0 7.311 0 12.083-13.292 0-25.477-0.123-37.683 0.041-13.619 0.184-18.002 4.362-18.002 17.654 0.020 39.526-4.014 32.010 32.031 45.814 124.498 47.636 250.573 95.785 375.214 143.073 0.696 0.266 5.53 2.478 6.492 2.929 2.109 0.84 4.465 1.331 6.205 1.331s4.321-0.573 6.103-1.331zM92.385 56.013c0 4.813 0 10.691 0 19.763 0 6.103 0.082 12.739 0 18.944-0.369 28.201 17.326 45.22 45.404 45.281 69.55 0.123 139.1 0.041 208.671 0.041 180.019-0.020 360.038-0.020 540.078-0.061 23.368 0 39.444-9.953 43.766-30.372 2.58-10.342 2.15-30.863 2.15-40.448 0-3.83 0.082-10.793 0-13.148-273.039 0-567.050 0-840.069 0zM456.356 559.78c38.031 0 74.117 0 111.575 0 0-111.452 0-222.802 0-334.93 37.99 0 74.629 0 112.456 0 0 111.247 0 222.618 0 334.664 37.827 0 74.465 0 112.353 0 0-111.677 0-223.048 0-335.462 20.255 0 39.26 0.061 58.286-0.020 17.674-0.061 25.661-7.946 25.825-25.416 0.082-9.503 0.020-19.026 0.020-29.307-242.749 0-484.864 0-728.064 0 0 12.268-0.922 24.822 0.287 37.171 1.044 10.772 10.322 17.408 21.811 17.531 19.784 0.246 39.567 0.225 59.372 0.348 0.266 0 0.532 0.369 2.068 1.516 0 110.428 0 221.778 0 333.742 37.888 0 74.527 0 111.944 0 0-111.718 0-222.863 0-334.787 37.437 0 74.117 0 112.067 0 0 111.084 0 222.433 0 334.95z" />
<glyph unicode="&#xe93b;" glyph-name="fas-fa-user-cog" d="M64.348 40.284c-17.859 5.939-34.509 13.701-46.141 29.43-9.646 13.046-15.831 27.177-15.667 43.807 0.266 26.092-0.471 52.204 0.287 78.275 1.679 56.709 23.941 104.714 64.246 144.159 48.046 47.022 106.967 64.143 172.913 60.58 2.703-0.143 5.448-1.085 7.987-2.13 73.564-30.679 147.19-30.904 220.856-0.43 8.704 3.604 37.56 3.768 50.156 0.020-0.819-2.519-1.597-5.038-2.478-7.537-11.284-31.764-0.983-61.071 27.73-78.807 1.577-0.983 3.195-1.905 4.772-2.867 10.097-6.103 10.22-14.459-0.164-20.111-20.746-11.284-35.246-27.709-36.106-51.651-0.471-13.455 3.154-27.648 7.66-40.55 11.981-34.324 31.252-64.655 55.337-91.832 22.856-25.784 53.801-30.249 84.972-12.616 12.308 6.963 18.842 3.113 19.005-11.059 0.061-4.956-0.492-10.301 1.147-14.766 2.97-8.090-0.963-11.551-7.332-14.029-7.188-2.785-14.479-5.284-21.729-7.885-195.789 0-391.619 0-587.448 0zM155.218 652.124c-0.164 113.971 93.778 202.67 202.035 203.571 110.367 0.922 205.599-89.047 205.394-203.756-0.205-112.701-90.972-203.428-203.858-203.592-112.333-0.184-203.223 90.808-203.571 203.776zM730.624 495.964c0 2.171 0 4.342 0 6.533-0.041 24.842-0.082 25.108 24.187 29.123 28.467 4.69 56.934 3.953 85.217-1.802 12.063-2.458 14.008-5.12 14.090-17.879 0.061-11.489 0.184-22.999-0.164-34.488-0.164-5.448 1.905-7.782 6.799-10.363 15.852-8.335 31.375-17.367 46.572-26.849 4.588-2.867 7.66-3.727 12.39-0.778 10.527 6.533 21.524 12.308 32.133 18.76 7.373 4.485 13.312 3.4 18.862-3.031 21.484-24.904 38.584-52.367 48.886-83.804 3.85-11.756 2.499-15.196-8.049-21.34-9.646-5.612-19.19-11.407-29.061-16.609-5.284-2.785-6.943-5.673-6.595-12.165 0.922-17.9 0.614-35.881 0.020-53.801-0.164-5.1 0.819-7.864 5.325-10.281 10.65-5.734 20.869-12.247 31.539-17.94 7.987-4.26 10.342-10.465 7.66-18.575-10.854-32.87-28.16-62.034-51.323-87.695-4.895-5.427-10.732-5.263-16.855-1.659-10.67 6.308-21.545 12.308-32.113 18.78-4.833 2.97-8.090 2.519-13.128-0.717-14.807-9.523-30.167-18.207-45.752-26.419-5.059-2.662-7.455-5.018-7.229-10.936 0.451-12.411 0.020-24.842 0.061-37.274 0.020-8.008-3.482-12.431-11.592-14.193-32.358-7.025-64.696-7.127-97.075-0.532-12.493 2.54-14.623 5.386-14.705 18.412-0.082 11.489-0.225 22.999 0.061 34.488 0.123 4.997-1.597 7.291-6.226 9.748-16.077 8.54-31.867 17.715-47.329 27.32-4.342 2.683-7.086 3.236-11.469 0.532-10.813-6.676-22.036-12.677-32.952-19.21-7.086-4.239-12.8-2.929-18.104 3.072-22.057 24.924-38.646 53.064-49.48 84.521-3.809 11.039-2.314 14.746 7.782 20.603 9.912 5.775 19.763 11.694 29.921 17.039 5.14 2.703 6.492 6.001 6.328 11.756-0.512 17.9-0.553 35.86 0.020 53.76 0.184 5.53-1.208 8.458-5.919 11.018-10.629 5.755-20.828 12.288-31.498 17.961-7.639 4.055-10.035 9.748-7.414 17.715 10.813 32.911 28.262 61.972 51.241 87.777 5.222 5.857 11.1 5.652 17.551 1.802 10.916-6.513 21.852-13.025 33.096-18.924 2.56-1.352 7.066-1.393 9.585-0.020 16.794 9.175 33.362 18.78 49.766 28.631 2.335 1.413 4.526 4.833 4.813 7.516 0.573 6.717 0.123 13.599 0.123 20.419zM792.986 372.326c-42.639 0.102-77.64-34.673-77.865-77.353-0.225-42.107 35.41-77.701 77.681-77.619 42.435 0.082 77.066 34.98 77.332 77.926 0.266 41.554-35.164 76.943-77.148 77.046z" />
<glyph unicode="&#xe93c;" glyph-name="fas-fa-vote-yea" d="M48.599 99.738c-16.712 3.318-32.051 9.585-39.936 25.723-3.932 8.069-7.025 17.756-7.025 26.685 0 48.312 0 98.836 0 150.344 0 29.266 17.265 50.504 46.223 52.122 34.714 1.946 69.612 0.451 105.165 0.451 0-33.71 0-67.092 0-101.601-10.813 0-21.34 0.143-31.846-0.041-13.783-0.225-18.289-4.936-18.371-18.76-0.020-4.669-0.020-9.339 0-14.008 0.082-13.66 4.649-18.473 18.575-18.555 28.959-0.164 57.938-0.061 86.897-0.061 230.502 0.020 461.005 0.020 691.507 0.041 18.432 0 21.443 3.523 22.016 21.729 0.86 28.18-2.54 30.351-29.942 29.655-6.492-0.164-13.005-0.020-20.337-0.020 0 34.038 0 67.42 0 101.356 1.987 0.225 4.076 0.676 6.144 0.696 30.208 0.061 60.436 0.246 90.644 0 27.054-0.225 46.408-13.947 52.675-37.499 1.638-6.185 1.659-14.070 1.659-20.562 0.123-44.851 0.061-108.933 0.061-135.864 0-32.686-8.622-52.49-45.138-61.809-309.637-0.020-619.315-0.020-928.973-0.020zM818.749 757.74c-0.020 37.396-20.398 57.733-57.733 57.815-29.901 0.061-59.802-0.164-89.682-0.164-136.704-0.020-273.408 0-410.112-0.020-33.935 0-55.378-21.443-55.419-55.419-0.041-47.944 0-95.908-0.020-143.852-0.061-117.391-0.123-234.762-0.164-352.154 0-3.277 0.348-6.574 0.532-9.974 204.554 0 408.084 0 612.127 0 0.184 3.215 0.451 5.939 0.451 8.663 0.020 165.028 0.061 330.056 0.020 495.104zM683.479 600.269c-66.273-65.761-132.588-131.502-198.943-197.202-10.957-10.854-20.46-10.691-31.375 0.287-37.069 37.315-74.117 74.65-111.165 111.985-12.145 12.227-12.186 21.238 0.041 33.464 10.998 10.998 22.159 21.852 33.28 32.727 11.592 11.346 20.46 11.387 32.051-0.184 17.838-17.818 46.756-47.022 53.125-53.821 3.359-3.584 5.386-5.98 9.564-10.65 24.474 25.129 44.851 46.408 66.949 68.69 26.522 26.726 53.371 53.146 80.138 79.647 12.308 12.186 20.521 12.227 32.625 0.184 11.469-11.407 22.876-22.897 34.14-34.509 10.547-10.813 10.404-19.845-0.43-30.618z" />
</font>
</defs>
</svg>
